<?xml version="1.0" standalone="no"?>
<!DOCTYPE svg PUBLIC "-//W3C//DTD SVG 1.1//EN" "http://www.w3.org/Graphics/SVG/1.1/DTD/svg11.dtd" >
<svg xmlns="http://www.w3.org/2000/svg">
<metadata>
This is a custom SVG webfont generated by Font Squirrel.
Copyright   : Copyright 2010 Canonical Ltd  Licensed under the Ubuntu Font Licence 10
Designer    : Dalton Maag Ltd
Foundry     : Dalton Maag Ltd
Foundry URL : httpwwwdaltonmaagcom
</metadata>
<defs>
<font id="webfontGZB3fjCF" horiz-adv-x="1183" >
<font-face units-per-em="2048" ascent="1638" descent="-410" />
<missing-glyph horiz-adv-x="481" />
<glyph unicode="&#xfb00;" horiz-adv-x="1597" d="M168 0v1161q0 205 100.5 316.5t315.5 111.5q84 0 144 -12t85 -23l-35 -163q-25 12 -69.5 23t-110.5 11q-133 0 -186.5 -72.5t-53.5 -195.5v-92h410v-160h-410v-905h-190zM967 0v1161q0 205 100.5 316.5t315.5 111.5q84 0 144 -12t85 -23l-35 -163q-25 12 -69.5 23 t-110.5 11q-133 0 -186.5 -72.5t-53.5 -195.5v-92h410v-160h-410v-905h-190z" />
<glyph unicode="&#xfb01;" horiz-adv-x="1325" d="M168 0v1161q0 205 100.5 316.5t315.5 111.5q72 0 123 -9t73 -17l-26 -164q-23 8 -62 17t-94 9q-133 0 -186.5 -72.5t-53.5 -195.5v-92h410v-160h-410v-905h-190zM938 1382q0 57 36 91t87 34t87 -33.5t36 -91.5q0 -57 -36 -91t-87 -34t-87 34t-36 91zM967 0v1065h190 v-1065h-190z" />
<glyph unicode="&#xfb02;" horiz-adv-x="1366" d="M168 0v1161q0 205 100.5 316.5t315.5 111.5q72 0 123 -9t73 -17l-26 -164q-23 8 -62 17t-94 9q-133 0 -186.5 -72.5t-53.5 -195.5v-92h410v-160h-410v-905h-190zM963 279v1277l190 33v-1280q0 -47 8 -77.5t26.5 -49t49.5 -28t76 -15.5l-27 -159q-176 4 -249.5 75.5 t-73.5 223.5z" />
<glyph unicode="&#xfb03;" horiz-adv-x="2123" d="M168 0v1161q0 205 100.5 316.5t315.5 111.5q84 0 144 -12t85 -23l-35 -163q-25 12 -69.5 23t-110.5 11q-133 0 -186.5 -72.5t-53.5 -195.5v-92h410v-160h-410v-905h-190zM967 0v1161q0 205 100.5 316.5t315.5 111.5q72 0 123 -9t73 -17l-26 -164q-23 8 -62 17t-94 9 q-133 0 -186.5 -72.5t-53.5 -195.5v-92h410v-160h-410v-905h-190zM1737 1382q0 57 36 91t87 34t87 -33.5t36 -91.5q0 -57 -36 -91t-87 -34t-87 34t-36 91zM1766 0v1065h190v-1065h-190z" />
<glyph unicode="&#xfb04;" horiz-adv-x="2164" d="M168 0v1161q0 205 100.5 316.5t315.5 111.5q84 0 144 -12t85 -23l-35 -163q-25 12 -69.5 23t-110.5 11q-133 0 -186.5 -72.5t-53.5 -195.5v-92h410v-160h-410v-905h-190zM967 0v1161q0 205 100.5 316.5t315.5 111.5q72 0 123 -9t73 -17l-26 -164q-23 8 -62 17t-94 9 q-133 0 -186.5 -72.5t-53.5 -195.5v-92h410v-160h-410v-905h-190zM1762 279v1277l190 33v-1280q0 -47 8 -77.5t26.5 -49t49.5 -28t76 -15.5l-27 -159q-176 4 -249.5 75.5t-73.5 223.5z" />
<glyph unicode="&#x9;" horiz-adv-x="481" />
<glyph unicode="&#xd;" horiz-adv-x="481" />
<glyph horiz-adv-x="0" />
<glyph horiz-adv-x="0" />
<glyph horiz-adv-x="0" />
<glyph unicode=" "  horiz-adv-x="481" />
<glyph unicode="&#x09;" horiz-adv-x="481" />
<glyph unicode="&#xa0;" horiz-adv-x="481" />
<glyph unicode="!" horiz-adv-x="573" d="M150 111q0 55 36.5 96t100.5 41q63 0 100 -41t37 -96t-37 -96.5t-100 -41.5t-100 41.5t-37 96.5zM184 1034v385h205v-385q0 -172 -12 -312t-31 -280h-119q-18 139 -30.5 279.5t-12.5 312.5z" />
<glyph unicode="&#x22;" horiz-adv-x="864" d="M152 1456v100h198v-102q0 -100 -12 -209.5t-31 -218.5h-112q-18 109 -30.5 218.5t-12.5 211.5zM514 1456v100h198v-102q0 -100 -12 -209.5t-31 -218.5h-112q-18 109 -30.5 218.5t-12.5 211.5z" />
<glyph unicode="#" horiz-adv-x="1374" d="M104 375v151h209l70 367h-279v151h310l71 375h172l-71 -375h332l71 375h172l-71 -375h180v-151h-211l-70 -367h281v-151h-309l-72 -375h-172l71 375h-331l-72 -375h-172l72 375h-181zM485 526h332l72 367h-332z" />
<glyph unicode="$" horiz-adv-x="1163" d="M129 119l51 153q61 -29 147.5 -53t213.5 -24q158 0 221 50t63 128q0 57 -27.5 98t-73.5 71.5t-106.5 55.5t-123.5 47q-61 23 -122 50.5t-108 67.5t-76.5 96t-29.5 138q0 145 87 238.5t253 118.5v235h170v-229q90 -4 167.5 -22.5t122.5 -34.5l-38 -160q-49 18 -123 37.5 t-185 19.5q-123 0 -189.5 -47t-66.5 -133q0 -47 19.5 -80t56.5 -58.5t87 -46t112 -42.5q80 -31 151.5 -64t126 -79t87 -109.5t32.5 -153.5q0 -145 -88 -234.5t-272 -111.5v-264h-170v258q-143 4 -233.5 31.5t-135.5 52.5z" />
<glyph unicode="%" horiz-adv-x="1765" d="M106 1073q0 92 25 162t69 118t103 72.5t129 24.5t129.5 -24.5t103.5 -72.5t68.5 -118t24.5 -162t-24.5 -161.5t-68.5 -118t-103.5 -73t-129.5 -24.5t-129 24.5t-103 73t-69 118t-25 161.5zM266 1073q0 -111 43 -173t123 -62t123 62.5t43 172.5q0 111 -43 173.5t-123 62.5 t-123 -62.5t-43 -173.5zM389 0l801 1419h186l-801 -1419h-186zM1008 346q0 92 24.5 162t68.5 118t103.5 72.5t128.5 24.5q70 0 129.5 -24.5t103.5 -72.5t68.5 -118t24.5 -162t-24.5 -161.5t-68.5 -118t-103.5 -73t-129.5 -24.5t-129 24.5t-103 73t-68.5 118t-24.5 161.5z M1167 346q0 -111 43 -173t123 -62t123 62.5t43 172.5q0 111 -43 173.5t-123 62.5t-123 -62.5t-43 -173.5z" />
<glyph unicode="&#x26;" horiz-adv-x="1372" d="M98 377q0 80 24.5 142.5t66.5 112.5t97.5 88t114.5 66q-152 152 -151 314q0 82 27.5 147.5t75.5 110.5t115 69.5t146 24.5q82 0 146.5 -24.5t108.5 -65.5t66.5 -98.5t22.5 -120.5q0 -72 -23.5 -129.5t-63.5 -104.5t-91 -86t-108 -69l332 -338q70 129 90 286l157 -20 q-8 -84 -41.5 -183.5t-95.5 -197.5q72 -78 132.5 -153.5t99.5 -147.5h-201q-25 41 -61 84l-74 86q-84 -84 -194.5 -136t-254.5 -52q-133 0 -221 37.5t-142.5 96t-77 128.5t-22.5 133zM289 381q0 -37 14 -80t47 -79t85 -59.5t130 -23.5q100 0 185.5 37t150.5 105l-399 403 q-37 -18 -75 -43t-68.5 -60.5t-50 -84.5t-19.5 -115zM428 1114q0 -133 139 -260q45 23 85 49.5t70 61t47 76.5t17 96q0 70 -46 118t-126 48q-90 0 -138 -54.5t-48 -134.5z" />
<glyph unicode="'" horiz-adv-x="501" d="M152 1456v100h198v-102q0 -100 -12 -209.5t-31 -218.5h-112q-18 109 -30.5 218.5t-12.5 211.5z" />
<glyph unicode="(" horiz-adv-x="671" d="M164 612q0 291 97 544t257 448l135 -93q-147 -190 -223 -413.5t-76 -485.5t76 -485t223 -414l-135 -92q-160 195 -257 447.5t-97 543.5z" />
<glyph unicode=")" horiz-adv-x="671" d="M18 -287q147 190 223 413.5t76 485.5t-75.5 485.5t-223.5 413.5l136 93q160 -195 257 -448t97 -544t-97.5 -543.5t-256.5 -447.5z" />
<glyph unicode="*" horiz-adv-x="991" d="M80 1055l57 172l13 -4q84 -29 155 -68l146 -80l-32 163q-15 79 -16 165v16h185v-16q0 -86 -16 -165l-31 -163l145 80q72 39 156 68l12 4l57 -172l-16 -6q-82 -31 -164 -40.5t-168 -15.5l127 -111q59 -54 111 -126l10 -15l-149 -104l-9 12q-49 74 -85 147l-72 150 l-73 -150q-36 -73 -85 -147l-8 -12l-150 104l10 15q51 72 111 126l127 111q-86 6 -168 15.5t-164 40.5z" />
<glyph unicode="+" horiz-adv-x="1163" d="M113 532v162h387v422h164v-422h387v-162h-387v-423h-164v423h-387z" />
<glyph unicode="," horiz-adv-x="512" d="M82 -279q51 104 67.5 212t16.5 202q0 27 -1 51.5t-3 46.5h207q2 -16 2 -31v-32q0 -129 -38 -255t-104 -241z" />
<glyph unicode="-" horiz-adv-x="620" d="M57 524v178h506v-178h-506z" />
<glyph unicode="." horiz-adv-x="512" d="M119 111q0 55 37 96t100 41t100 -41t37 -96t-37 -96.5t-100 -41.5t-100 41.5t-37 96.5z" />
<glyph unicode="/" horiz-adv-x="794" d="M-45 -379l694 1983h191l-690 -1983h-195z" />
<glyph unicode="0" horiz-adv-x="1163" d="M106 711q0 356 126 548.5t350 192.5q223 0 349 -192.5t126 -548.5t-126 -549t-349 -193t-349.5 193t-126.5 549zM307 711q0 -117 13.5 -221.5t45 -182.5t85 -124t131.5 -46t131 46t84.5 124t45 182.5t13.5 221.5t-13.5 221t-45 182t-85 124t-130.5 46q-78 0 -131.5 -46 t-85 -124t-45 -182t-13.5 -221z" />
<glyph unicode="1" horiz-adv-x="1163" d="M195 1126q117 45 227 116t203 177h135v-1419h-191v1155q-25 -23 -60.5 -47.5t-77.5 -47t-88 -43t-89 -34.5z" />
<glyph unicode="2" horiz-adv-x="1163" d="M119 1282q18 20 55 50t88 56.5t114.5 45t137.5 18.5q223 0 335 -103.5t112 -291.5q0 -74 -30 -142.5t-79 -135t-111 -131.5l-123 -126l-80 -82q-46 -47 -87 -98t-69 -98t-28 -82h654v-162h-861q-2 12 -2 25v22q0 96 32 179t83 157t115 139l125 127l97 97q46 48 82 96.5 t57.5 99.5t21.5 109q0 61 -19.5 104t-52.5 71.5t-77 42t-93 13.5q-59 0 -108.5 -16.5t-88 -38t-65.5 -44.5l-41 -36z" />
<glyph unicode="3" horiz-adv-x="1163" d="M117 43l37 166q35 -16 115.5 -43t197.5 -27q182 0 261 72t79 192q0 78 -33 131.5t-86 85t-123.5 45t-144.5 13.5h-49v156h67q51 0 105.5 10t99.5 36.5t73.5 72.5t28.5 116q0 57 -20 98t-54 68t-78 38t-93 11q-98 0 -167 -28.5t-116 -59.5l-74 145q25 16 63 36t85 36.5 t101 27.5t114 11q113 0 194.5 -27.5t135 -78t80 -119t26.5 -148.5q0 -111 -63.5 -189.5t-153.5 -119.5q55 -16 106.5 -47t89 -78t61.5 -108.5t24 -137.5q0 -92 -32 -170.5t-98.5 -136t-167 -90.5t-237.5 -33q-53 0 -109.5 8.5t-105.5 20.5t-86 24.5t-53 20.5z" />
<glyph unicode="4" horiz-adv-x="1163" d="M86 362v130q39 90 106.5 209.5t152.5 246.5t182.5 250t195.5 221h182v-901h168v-156h-168v-362h-184v362h-635zM270 518h451v676q-61 -66 -123.5 -146.5t-122 -168.5t-112 -180.5t-93.5 -180.5z" />
<glyph unicode="5" horiz-adv-x="1163" d="M137 43l37 166q35 -16 114 -43t193 -27q92 0 154.5 20.5t101.5 55.5t56.5 81t17.5 97q0 78 -26.5 138.5t-94 101.5t-180.5 62.5t-285 21.5q12 100 19.5 188t13.5 172t10 167t8 175h685v-162h-519q-2 -31 -6 -82l-8 -109l-8 -110q-4 -53 -8 -84q309 -12 453.5 -135 t144.5 -334q0 -94 -32 -173.5t-96.5 -137t-162.5 -90.5t-234 -33q-53 0 -108 8.5t-102.5 20.5t-84.5 24.5t-53 20.5z" />
<glyph unicode="6" horiz-adv-x="1163" d="M133 569q0 207 57.5 366t163 267.5t256 164.5t338.5 58l15 -159q-121 -2 -220.5 -27t-177.5 -78t-131 -138t-80 -210q53 25 120 41t138 16q121 0 205 -36.5t137.5 -97t77 -139.5t23.5 -165q0 -78 -27 -160t-81 -149.5t-138 -110.5t-199 -43q-233 0 -355 159.5t-122 440.5 zM332 569q0 -90 12 -170t44 -140t85 -96t135 -36q68 0 115 28.5t77.5 73.5t44 97.5t13.5 101.5q0 139 -66.5 213t-199.5 74q-72 0 -133.5 -13.5t-122.5 -39.5q-2 -23 -3 -46.5t-1 -46.5z" />
<glyph unicode="7" horiz-adv-x="1163" d="M127 1253v166h903v-157q-68 -78 -149.5 -214.5t-154.5 -305.5t-125 -360.5t-64 -381.5h-199q12 164 58 345t114 352t148.5 317.5t158.5 238.5h-690z" />
<glyph unicode="8" horiz-adv-x="1163" d="M117 358q0 59 19.5 113.5t51 102t73.5 85t89 66.5q-201 115 -200 338q0 78 30.5 148.5t87 124t136 85t178.5 31.5q115 0 196.5 -35t134 -89t76 -119.5t23.5 -127.5q0 -59 -17.5 -111t-47 -97.5t-67.5 -80t-79 -61.5q242 -115 246 -362q0 -86 -30 -159t-88.5 -127 t-146.5 -84t-202 -30q-133 0 -222.5 38t-142.5 95.5t-75.5 126t-22.5 129.5zM309 356q0 -37 13.5 -76.5t46 -73.5t84 -56.5t129.5 -22.5q70 0 122 20.5t84.5 52t49 72.5t16.5 84q0 66 -24.5 115t-70.5 86t-110.5 62.5t-146.5 44.5q-92 -51 -142.5 -127.5t-50.5 -180.5z M340 1077q0 -45 16.5 -90t51 -84t91 -69.5t134.5 -49.5q86 51 137 120t51 179q0 31 -13 68t-42 68.5t-74 53t-110 21.5q-66 0 -112 -20.5t-74.5 -52t-42 -69.5t-13.5 -75z" />
<glyph unicode="9" horiz-adv-x="1163" d="M109 991q0 76 26.5 158t80.5 149.5t138 110.5t199 43q117 0 206 -41t149.5 -119t91 -189.5t30.5 -250.5q0 -422 -210 -638t-623 -218l-7 160q129 0 232.5 24.5t181.5 78.5t130 140t77 211q-53 -25 -120.5 -40t-139.5 -15q-121 0 -205 36t-137 96.5t-76.5 139t-23.5 164.5 zM305 995q0 -139 66.5 -211.5t199.5 -72.5q72 0 135.5 13t122.5 40q2 23 2 44v44q0 88 -12 169t-44 141.5t-85 96t-135 35.5q-68 0 -115 -28.5t-77.5 -72.5t-44 -96.5t-13.5 -101.5z" />
<glyph unicode=":" horiz-adv-x="512" d="M119 111q0 55 37 96t100 41t100 -41t37 -96t-37 -96.5t-100 -41.5t-100 41.5t-37 96.5zM119 928q0 55 37 96t100 41t100 -41t37 -96t-37 -96.5t-100 -41.5t-100 41.5t-37 96.5z" />
<glyph unicode=";" horiz-adv-x="512" d="M82 -279q51 104 67.5 212t16.5 202q0 27 -1 51.5t-3 46.5h207q2 -16 2 -31v-32q0 -129 -38 -255t-104 -241zM119 928q0 55 37 96t100 41t100 -41t37 -96t-37 -96.5t-100 -41.5t-100 41.5t-37 96.5z" />
<glyph unicode="&#x3c;" horiz-adv-x="1163" d="M113 530v164l884 375l54 -158l-727 -299l727 -299l-54 -157z" />
<glyph unicode="=" horiz-adv-x="1163" d="M113 313v162h938v-162h-938zM113 750v161h938v-161h-938z" />
<glyph unicode="&#x3e;" horiz-adv-x="1163" d="M113 313l727 299l-727 299l53 158l885 -375v-164l-885 -374z" />
<glyph unicode="?" horiz-adv-x="835" d="M43 1370q70 37 157 59.5t185 22.5q117 0 191.5 -31.5t119.5 -81t62.5 -110t17.5 -115.5q0 -70 -26.5 -124t-65.5 -101t-86 -90t-86 -89t-65.5 -100.5t-26.5 -122.5v-22q0 -12 2 -23h-160q-8 41 -8 86q0 66 23.5 119t60.5 99.5t78 86t77.5 80.5t60.5 86t24 99 q0 86 -55.5 140t-162.5 54q-135 0 -264 -69zM215 111q0 55 37 96t100 41t100 -41t37 -96t-36.5 -96.5t-100.5 -41.5q-63 0 -100 41.5t-37 96.5z" />
<glyph unicode="@" horiz-adv-x="1953" d="M137 569q0 221 69.5 387t187.5 275.5t272.5 165t326.5 55.5q168 0 317.5 -54.5t262.5 -157.5t178.5 -249.5t65.5 -331.5q0 -139 -32 -245.5t-85 -179t-127 -109.5t-156 -37q-66 0 -108.5 18.5t-71.5 49.5q-45 -25 -108.5 -42.5t-127.5 -17.5q-98 0 -179 31t-140 91.5 t-92 148.5t-33 204q0 98 30.5 185.5t91 152t147.5 101.5t198 37q104 0 191.5 -16.5t134.5 -33.5v-626q0 -66 22.5 -92.5t59.5 -26.5q53 0 93 37t65.5 96t37.5 134t12 153q0 129 -45 242.5t-129 199.5t-203.5 135t-269.5 49t-274.5 -50t-214.5 -143t-140.5 -228.5 t-50.5 -307.5q0 -180 53.5 -316t148.5 -227.5t225 -137.5t286 -46q121 0 200 14.5t101 22.5l21 -151q-35 -12 -126.5 -26.5t-195.5 -14.5q-182 0 -344 52t-282.5 159.5t-191.5 274.5t-71 396zM750 571q0 -145 69.5 -231t188.5 -86q43 0 87 9t79 28q-6 27 -8.5 53.5 t-2.5 50.5v482q-12 4 -47 8t-78 4q-145 0 -216.5 -90.5t-71.5 -227.5z" />
<glyph unicode="A" horiz-adv-x="1366" d="M20 0l154 417l140 363l137 329q68 157 141 310h182q74 -154 141 -310l137 -329l140 -363l154 -417h-218l-65 181l-64 181h-643l-129 -362h-207zM414 526h528l-130 345q-65 167 -134 321q-72 -154 -136 -321z" />
<glyph unicode="B" horiz-adv-x="1325" d="M180 23v1376q41 10 90 16t99.5 10.5t99.5 6.5t92 2q123 0 230.5 -18.5t186.5 -62.5t124 -116t45 -176q0 -117 -55.5 -191.5t-147.5 -111.5q125 -37 199 -117t74 -225q0 -213 -157 -320.5t-497 -107.5q-43 0 -93 2t-100.5 6t-99.5 10.5t-90 16.5zM377 162q23 -2 53 -4 q27 -2 62.5 -3t82.5 -1q88 0 167 11t138.5 39.5t95.5 80t36 129.5q0 70 -27 118t-77 76.5t-119.5 41t-155.5 12.5h-256v-500zM377 821h209q74 0 139.5 10.5t113.5 37t75.5 69.5t27.5 109q0 61 -28.5 103t-79 67.5t-118 38t-143.5 12.5t-118.5 -2t-77.5 -6v-439z" />
<glyph unicode="C" horiz-adv-x="1277" d="M123 711q0 178 54 316t146.5 232.5t215.5 143.5t262 49q88 0 158.5 -12.5t123 -28.5t85 -32.5t44.5 -24.5l-57 -164q-18 12 -53 26.5t-79 29t-96.5 23.5t-105.5 9q-113 0 -203 -39t-153.5 -112.5t-97 -179t-33.5 -236.5q0 -127 29.5 -231.5t89 -179.5t148.5 -116t208 -41 q137 0 227 29t135 51l52 -164q-14 -10 -51 -25.5t-92.5 -29.5t-129 -24.5t-159.5 -10.5q-150 0 -273 49.5t-211 143.5t-136 232.5t-48 316.5z" />
<glyph unicode="D" horiz-adv-x="1468" d="M180 23v1376q84 20 187.5 27.5t189.5 7.5q174 0 319.5 -44t250 -133.5t162 -225.5t57.5 -320t-57.5 -320.5t-162 -225.5t-250 -133t-319.5 -44q-86 0 -189.5 7.5t-187.5 27.5zM379 168q18 -2 64 -4t130 -2q283 0 422.5 144.5t139.5 404.5t-139.5 404.5t-422.5 144.5 q-84 0 -130 -2.5t-64 -4.5v-1085z" />
<glyph unicode="E" horiz-adv-x="1177" d="M180 0v1419h867v-170h-668v-422h594v-165h-594v-492h719v-170h-918z" />
<glyph unicode="F" horiz-adv-x="1107" d="M180 0v1419h856v-170h-657v-428h584v-168h-584v-653h-199z" />
<glyph unicode="G" horiz-adv-x="1384" d="M123 711q0 178 54 316t146.5 232.5t216.5 143.5t265 49q96 0 171 -12.5t128 -28.5t87 -32.5t46 -24.5l-63 -166q-59 39 -157.5 64.5t-201.5 25.5q-109 0 -198 -39t-151.5 -112.5t-97 -179t-34.5 -236.5q0 -127 29.5 -231.5t90 -179.5t149.5 -116t210 -41q86 0 146.5 9.5 t87.5 17.5v528h198v-663q-25 -8 -71 -18.5t-106 -20.5t-132 -17.5t-145 -7.5q-150 0 -273 49.5t-211 143.5t-136 231.5t-48 315.5z" />
<glyph unicode="H" horiz-adv-x="1452" d="M180 0v1419h199v-592h694v592h199v-1419h-199v655h-694v-655h-199z" />
<glyph unicode="I" horiz-adv-x="559" d="M180 0v1419h199v-1419h-199z" />
<glyph unicode="J" horiz-adv-x="1032" d="M20 84l78 158q43 -31 112 -65t171 -34q147 0 215 75t68 257v944h198v-962q0 -102 -21.5 -190.5t-75.5 -155t-145.5 -104.5t-228.5 -38q-70 0 -128 11.5t-105 29t-82.5 37t-55.5 37.5z" />
<glyph unicode="K" horiz-adv-x="1296" d="M180 0v1419h199v-626l158 152l170 171l158 165q75 79 126 138h240l-144 -154l-166 -174l-173 -176l-162 -159q88 -61 186 -151.5t192.5 -193t177.5 -209t138 -202.5h-233q-61 96 -141.5 193.5t-169.5 186.5t-180 165t-177 129v-674h-199z" />
<glyph unicode="L" horiz-adv-x="1071" d="M180 0v1419h199v-1247h655v-172h-854z" />
<glyph unicode="M" horiz-adv-x="1792" d="M141 0q8 184 18.5 371.5t24 369t28.5 353.5t34 325h174q55 -90 119 -213l127 -257l122 -268l109 -245l109 245l122 268l127 257q63 123 119 213h174q70 -686 105 -1419h-195q-10 287 -24.5 568.5t-36.5 523.5q-20 -35 -54 -100.5t-73 -148.5l-83 -176l-83 -182l-73 -163 l-54 -125h-160l-54 125l-73 163l-83 182l-83 176l-72.5 148.5t-54.5 100.5q-23 -242 -37 -523.5t-24 -568.5h-195z" />
<glyph unicode="N" horiz-adv-x="1499" d="M180 0v1419h158q96 -102 206 -238l217 -281l203 -284q95 -139 160 -247v1050h195v-1419h-166l-103 170l-126 196l-141 205l-144 202l-139 183l-125 152v-1108h-195z" />
<glyph unicode="O" horiz-adv-x="1601" d="M123 711q0 182 54 321t147.5 232.5t217.5 140.5t263 47q137 0 259 -47t214 -140.5t146.5 -232.5t54.5 -321t-54.5 -321.5t-146.5 -233t-214 -140.5t-259 -47q-139 0 -263 47t-217.5 140.5t-147.5 233t-54 321.5zM332 711q0 -129 32.5 -234.5t93 -179.5t147.5 -114 t196 -40t194.5 40t146 114t93.5 179.5t33 234.5t-33 234.5t-93.5 179t-146.5 113.5t-194 40q-109 0 -196 -40t-147.5 -113.5t-93 -179t-32.5 -234.5z" />
<glyph unicode="P" horiz-adv-x="1253" d="M180 0v1399q84 20 187.5 27.5t189.5 7.5q299 0 460 -114t161 -339q0 -123 -44 -210t-127 -141.5t-202 -79t-268 -24.5h-158v-526h-199zM379 696h149q102 0 184.5 13.5t138.5 45t87 87t31 141.5q0 82 -32 135t-86 85t-126 44.5t-152 12.5q-127 0 -194 -7v-557z" />
<glyph unicode="Q" horiz-adv-x="1601" d="M123 711q0 182 54 321t147.5 232.5t217.5 140.5t263 47q137 0 259 -47t214 -140.5t146.5 -232.5t54.5 -321q0 -160 -41 -285t-114 -216t-170 -147.5t-208 -76.5q2 -47 42 -83t101.5 -60.5t137.5 -41t151 -24.5l-47 -156q-106 14 -203.5 38t-176.5 62.5t-132 99t-71 150.5 q-129 8 -244 60.5t-199 145.5t-133 226.5t-49 307.5zM332 711q0 -129 32.5 -234.5t93 -179.5t147.5 -114t196 -40t194.5 40t146 114t93.5 179.5t33 234.5t-33 234.5t-93.5 179t-146.5 113.5t-194 40q-109 0 -196 -40t-147.5 -113.5t-93 -179t-32.5 -234.5z" />
<glyph unicode="R" horiz-adv-x="1296" d="M180 0v1399q84 20 187.5 27.5t189.5 7.5q299 0 455.5 -113t156.5 -336q0 -141 -74.5 -241.5t-220.5 -149.5l83 -108q50 -67 103.5 -147.5t106 -168.5t88.5 -170h-217q-41 78 -89 158t-97 152.5t-97 135.5l-87 111q-27 -2 -55 -2h-56h-178v-555h-199zM379 719h141 q102 0 184 10t138.5 39t87.5 81t31 138q0 80 -31 133.5t-83 84t-123 43t-151 12.5q-127 0 -194 -7v-534z" />
<glyph unicode="S" horiz-adv-x="1097" d="M72 70l59 163q47 -27 143.5 -59.5t235.5 -32.5q311 0 311 213q0 66 -27.5 112t-74.5 80t-107.5 58.5t-128.5 48.5q-78 27 -147.5 61t-120.5 80t-81 109.5t-30 153.5q0 186 127 290.5t351 104.5q129 0 234.5 -27.5t154.5 -60.5l-64 -162q-43 27 -128 52.5t-197 25.5 q-57 0 -106.5 -12.5t-86.5 -37t-58.5 -62.5t-21.5 -89q0 -57 22.5 -96t63.5 -68.5t95.5 -54t119.5 -49.5q92 -37 169 -74t133.5 -88t87 -121.5t30.5 -171.5q0 -186 -136 -286.5t-384 -100.5q-84 0 -154.5 11.5t-126 27t-95 33t-62.5 29.5z" />
<glyph unicode="T" horiz-adv-x="1165" d="M37 1247v172h1091v-172h-446v-1247h-199v1247h-446z" />
<glyph unicode="U" horiz-adv-x="1417" d="M170 528v891h199v-868q0 -213 94 -309.5t246 -96.5q76 0 138 24t107 73t70 125.5t25 183.5v868h198v-891q0 -119 -31.5 -221t-98 -177t-168 -118t-240.5 -43t-241.5 43t-168.5 118t-97.5 177t-31.5 221z" />
<glyph unicode="V" horiz-adv-x="1351" d="M25 1419h219l217 -622q106 -299 219 -561q113 260 219 560l215 623h213l-148 -417l-139 -363l-134 -329l-136 -310h-186l-137 310l-135 329l-140 363z" />
<glyph unicode="W" horiz-adv-x="1910" d="M61 1419h209l60 -319l63 -310l66 -288q33 -137 67 -254l174 472q92 257 172 531h172q80 -274 175 -531l176 -472q33 115 65.5 252t64 287.5l62.5 311.5l60 320h202q-74 -410 -156.5 -758t-189.5 -661h-198l-176.5 454.5t-172.5 508.5q-86 -274 -174 -508l-176 -455h-198 q-109 313 -192 661t-155 758z" />
<glyph unicode="X" horiz-adv-x="1300" d="M51 0q92 180 214 367l259 383l-454 669h229l350 -528l346 528h228l-447 -661l262 -387q123 -188 217 -371h-223q-31 61 -74 136t-94 156l-106 162l-107 152l-106 -152l-106 -162l-94 -156q-44 -75 -75 -136h-219z" />
<glyph unicode="Y" horiz-adv-x="1232" d="M16 1419h234q78 -168 174 -341t199 -333q100 160 196 333t176 341h222l-236 -417l-264 -429v-573h-199v569l-266 432z" />
<glyph unicode="Z" horiz-adv-x="1181" d="M72 0v133q43 82 101 180l125 201l138 207l143 201l137 180l122 147h-729v170h972v-157l-109 -128l-132 -166l-144 -193l-144 -205q-71 -103 -134.5 -205.5t-114.5 -194.5h799v-170h-1030z" />
<glyph unicode="[" horiz-adv-x="681" d="M201 -379v1983h461v-150h-283v-1683h283v-150h-461z" />
<glyph unicode="\" horiz-adv-x="794" d="M-45 1604h190l695 -1983h-195z" />
<glyph unicode="]" horiz-adv-x="681" d="M20 -229h283v1683h-283v150h461v-1983h-461v150z" />
<glyph unicode="^" horiz-adv-x="1163" d="M100 723l398 696h168l397 -696l-152 -78l-329 578l-330 -578z" />
<glyph unicode="_" horiz-adv-x="1015" d="M-4 -217h1024v-162h-1024v162z" />
<glyph unicode="`" horiz-adv-x="778" d="M129 1468l123 121l262 -315l-96 -86z" />
<glyph unicode="a" horiz-adv-x="1077" d="M92 317q0 88 36 151.5t97.5 102.5t143.5 57.5t172 18.5q29 0 59.5 -3t57.5 -8l49 -9q20 -4 28 -6v53q0 47 -10 93t-36.5 82t-73 57.5t-119.5 21.5q-94 0 -165 -13.5t-106 -27.5l-22 157q37 16 123 32t186 16q115 0 193.5 -30t127 -84t69 -129t20.5 -165v-666l-69 -11 q-44 -7 -99.5 -13t-120 -11.5t-127.5 -5.5q-90 0 -166 18.5t-131 58.5t-86 105.5t-31 157.5zM285 319q0 -102 65.5 -142t177.5 -40q68 0 120 3t87 12v317q-20 10 -66 17.5t-112 7.5q-43 0 -91 -6.5t-88 -26t-66.5 -53.5t-26.5 -89z" />
<glyph unicode="b" horiz-adv-x="1214" d="M168 31v1525l190 33v-571q35 23 106 47.5t163 24.5q115 0 204 -41t150 -115t93 -176.5t32 -225.5q0 -129 -38 -232t-107.5 -175t-168 -111t-221.5 -39q-133 0 -235 19t-168 37zM358 166q29 -8 81.5 -15.5t129.5 -7.5q154 0 246 101.5t92 287.5q0 82 -16.5 154t-53 124 t-95 82t-140.5 30q-78 0 -143.5 -27t-100.5 -55v-674z" />
<glyph unicode="c" horiz-adv-x="960" d="M109 530q0 123 35.5 225.5t101 177.5t161 117t211.5 42q72 0 144 -12.5t137 -39.5l-43 -161q-43 20 -99.5 32.5t-119.5 12.5q-160 0 -245 -100.5t-85 -293.5q0 -86 19.5 -157.5t61.5 -122.5t107.5 -79t159.5 -28q76 0 137.5 14.5t96.5 30.5l26 -159q-16 -10 -46.5 -19.5 t-69.5 -16.5t-83 -12.5t-85 -5.5q-129 0 -226.5 41t-164 115t-99 175t-32.5 224z" />
<glyph unicode="d" horiz-adv-x="1214" d="M109 532q0 123 31.5 225.5t93 176.5t150.5 115t204 41q92 0 162.5 -25t105.5 -47v538l191 33v-1558q-66 -18 -168.5 -37t-235.5 -19q-123 0 -221 39t-168 111t-107.5 175t-37.5 232zM307 532q0 -186 92.5 -287.5t245.5 -101.5q78 0 130 7.5t81 15.5v674 q-35 29 -100.5 55.5t-143.5 26.5q-82 0 -140 -30t-95 -82t-53.5 -124t-16.5 -154z" />
<glyph unicode="e" horiz-adv-x="1153" d="M109 530q0 141 40.5 247t108.5 175.5t156 104.5t180 35q215 0 329.5 -134.5t114.5 -408.5v-32q0 -19 -2 -36h-729q12 -166 96 -252t263 -86q100 0 168.5 17.5t103.5 34.5l27 -160q-35 -18 -122 -39t-198 -21q-139 0 -240.5 42t-167 116t-97 175t-31.5 222zM311 635h529 q2 129 -64.5 212t-183.5 83q-66 0 -116 -25.5t-85 -66.5t-54.5 -94.5t-25.5 -108.5z" />
<glyph unicode="f" horiz-adv-x="798" d="M168 0v1161q0 205 100.5 316.5t315.5 111.5q84 0 144 -12t85 -23l-35 -163q-25 12 -69.5 23t-110.5 11q-133 0 -186.5 -72.5t-53.5 -195.5v-92h410v-160h-410v-905h-190z" />
<glyph unicode="g" horiz-adv-x="1191" d="M109 555q0 117 34.5 214t101 168t163 110.5t217.5 39.5q133 0 232 -19t167 -36v-950q0 -246 -127 -356.5t-385 -110.5q-100 0 -189.5 16.5t-154.5 38.5l35 166q57 -23 140 -40t173 -17q170 0 245 67.5t75 214.5v45q-25 -16 -95.5 -41.5t-165.5 -25.5q-96 0 -181 30.5 t-148.5 95t-100 161t-36.5 229.5zM307 553q0 -92 23.5 -157.5t63.5 -108.5t92.5 -63.5t107.5 -20.5q76 0 139.5 21.5t100.5 49.5v623q-29 8 -77 15.5t-130 7.5q-154 0 -237 -100.5t-83 -266.5z" />
<glyph unicode="h" horiz-adv-x="1177" d="M168 0v1556l190 33v-545q53 20 113.5 31.5t120.5 11.5q127 0 211 -35.5t134 -100t70.5 -154.5t20.5 -199v-598h-190v557q0 98 -13.5 168t-44 113t-82 62.5t-127.5 19.5q-31 0 -63.5 -4.5t-62 -9.5t-53 -11t-34.5 -10v-885h-190z" />
<glyph unicode="i" horiz-adv-x="526" d="M139 1382q0 57 36 91t87 34t87 -33.5t36 -91.5q0 -57 -36 -91t-87 -34t-87 34t-36 91zM168 0v1065h190v-1065h-190z" />
<glyph unicode="j" horiz-adv-x="526" d="M-135 -360l24 155q20 -6 47 -10t50 -4q98 0 140 60.5t42 176.5v1047h190v-1045q0 -205 -93 -304t-271 -99q-25 0 -63.5 6.5t-65.5 16.5zM139 1382q0 57 36 91t87 34t87 -33.5t36 -91.5q0 -57 -36 -91t-87 -34t-87 34t-36 91z" />
<glyph unicode="k" horiz-adv-x="1077" d="M168 0v1556l190 33v-971l109 109l117 121l108 118l88 99h224l-103 -113l-115 -124l-119 -125l-114 -117q61 -47 130 -117t135.5 -150.5t126 -163.5t99.5 -155h-223q-43 72 -99 146.5t-117.5 143t-125 126t-121.5 96.5v-512h-190z" />
<glyph unicode="l" horiz-adv-x="567" d="M164 279v1277l190 33v-1280q0 -47 8.5 -77.5t27 -49t49 -28t75.5 -15.5l-27 -159q-176 4 -249.5 75.5t-73.5 223.5z" />
<glyph unicode="m" horiz-adv-x="1771" d="M168 0v1034q66 16 173.5 34.5t248.5 18.5q102 0 171.5 -27.5t117.5 -80.5q14 10 44.5 28.5t75.5 36t100.5 30.5t119.5 13q123 0 200.5 -35.5t121.5 -101t59.5 -155.5t15.5 -197v-598h-191v557q0 94 -9 161.5t-34.5 113t-69.5 67t-114 21.5q-96 0 -158.5 -26t-85.5 -46 q16 -53 24.5 -116.5t8.5 -133.5v-598h-190v557q0 94 -10.5 161.5t-36 113t-69.5 67t-112 21.5q-29 0 -61.5 -2.5t-62 -5.5t-54 -7t-33.5 -6v-899h-190z" />
<glyph unicode="n" d="M168 0v1034q66 16 174.5 34.5t249.5 18.5q127 0 211 -35.5t134 -100t70.5 -154.5t20.5 -199v-598h-190v557q0 98 -13.5 168t-44 113t-82 62.5t-127.5 19.5q-31 0 -63.5 -2.5t-62 -5.5t-53 -7l-34.5 -6v-899h-190z" />
<glyph unicode="o" horiz-adv-x="1216" d="M109 532q0 125 36.5 228.5t103 177.5t159 114t200.5 40q109 0 201 -40t158.5 -114t103.5 -177.5t37 -228.5q0 -127 -37 -229t-103.5 -176t-158.5 -114t-201 -40t-201 40t-158.5 114t-103 176t-36.5 229zM307 532q0 -180 81 -285.5t220 -105.5t220 105.5t81 285.5 t-80.5 286t-220.5 106q-139 0 -220 -106t-81 -286z" />
<glyph unicode="p" horiz-adv-x="1214" d="M168 -379v1411q68 16 169 35.5t234 19.5q123 0 221.5 -38.5t168 -110.5t107.5 -175.5t38 -232.5q0 -121 -32 -223t-93 -176t-150.5 -115t-203.5 -41q-92 0 -163 25t-106 47v-426h-190zM358 225q35 -29 100.5 -55.5t143.5 -26.5q82 0 140.5 30t95 82t53 123t16.5 152 q0 186 -92 287t-246 101q-86 0 -134 -6.5t-77 -14.5v-672z" />
<glyph unicode="q" horiz-adv-x="1214" d="M109 530q0 129 37.5 232.5t107.5 175.5t168 110.5t221 38.5q133 0 234.5 -19t169.5 -36v-1411h-191v426q-35 -23 -105.5 -47.5t-162.5 -24.5q-115 0 -204 41t-150.5 115t-93 176t-31.5 223zM307 530q0 -82 16.5 -152.5t53.5 -122.5t95 -82t140 -30q78 0 143.5 27 t100.5 55v672q-29 8 -77 14.5t-134 6.5q-154 0 -246 -101t-92 -287z" />
<glyph unicode="r" horiz-adv-x="798" d="M168 0v1020q68 25 168 46t225 21q25 0 56.5 -3t62.5 -8t56.5 -10t37.5 -9l-33 -166q-23 8 -75 19.5t-134 11.5q-53 0 -105 -11.5l-69 -15.5v-895h-190z" />
<glyph unicode="s" horiz-adv-x="921" d="M86 35l35 164l104.5 -37t190.5 -25q117 0 173 31t56 98q0 70 -55 111t-182 92l-118 50.5t-97.5 60t-65.5 84t-25 120.5q0 141 104.5 224.5t285.5 83.5q45 0 90 -5.5t84 -12.5t68.5 -15t45.5 -15l-35 -163q-31 16 -96 33.5t-157 17.5q-80 0 -139.5 -32t-59.5 -99 q0 -35 13 -61.5t41 -48t69 -40t98 -39.5q76 -29 135.5 -56.5t101.5 -64t64.5 -89t22.5 -128.5q0 -147 -110 -223t-312 -76q-141 0 -221 24t-109 36z" />
<glyph unicode="t" horiz-adv-x="831" d="M156 412v950l190 33v-330h404v-160h-404v-491q0 -80 12.5 -132.5t37 -82t61.5 -42t86 -12.5q86 0 138 19.5t73 28.5l37 -158q-29 -14 -101 -36t-164 -22q-109 0 -179.5 28t-113.5 83t-60 136.5t-17 187.5z" />
<glyph unicode="u" d="M156 467v598h190v-557q0 -195 61.5 -279t206.5 -84q31 0 64 2.5t61.5 5.5t52 6t33.5 7v899h191v-1034q-66 -16 -173.5 -35t-248.5 -19q-123 0 -207 36t-135 101.5t-73.5 154.5t-22.5 198z" />
<glyph unicode="v" horiz-adv-x="1036" d="M37 1065h205q25 -100 58.5 -214t71.5 -225l77 -216l73 -187q35 82 74 187l77 216q38 112 71.5 225.5t58.5 213.5h196q-80 -299 -187 -573.5t-208 -491.5h-172q-100 217 -207.5 491.5t-187.5 573.5z" />
<glyph unicode="w" horiz-adv-x="1599" d="M41 1065h205q20 -96 49 -209l60.5 -225.5t66.5 -217t65 -182.5q35 96 69 204t65 217l58 215q28 105 48 198h158q18 -92 44.5 -197.5t57.5 -215l64.5 -217t68.5 -204.5q31 78 65 182.5t66.5 217t61 225.5t49.5 209h197q-80 -313 -170.5 -583.5t-184.5 -481.5h-166 q-57 147 -121.5 336.5t-117.5 394.5q-53 -205 -117 -394.5t-121 -336.5h-166q-94 211 -184 481.5t-170 583.5z" />
<glyph unicode="x" horiz-adv-x="1054" d="M37 0q72 139 171 284l198 275l-353 506h215l254 -373l256 373h203l-344 -494l202 -281q103 -148 175 -290h-209q-23 45 -55.5 100.5t-71.5 113.5l-80 116l-80 108l-80 -109l-79 -117l-70 -114q-33 -55 -56 -98h-196z" />
<glyph unicode="y" horiz-adv-x="1026" d="M8 -352l35 153q23 -10 58.5 -19t70.5 -9q113 0 176.5 50t114.5 163q-129 246 -240.5 521t-185.5 558h205q23 -92 54.5 -198.5t70.5 -219t84 -225.5t94 -217q78 215 135 426t108 434h197q-74 -301 -164 -578.5t-194 -519.5q-41 -92 -85 -158.5t-97.5 -109.5t-120 -63.5 t-150.5 -20.5q-23 0 -47.5 3t-48 8t-43 11.5t-27.5 10.5z" />
<glyph unicode="z" horiz-adv-x="972" d="M78 0v127q49 90 120.5 198.5t150.5 216.5l154 202l130 161h-527v160h768v-143q-43 -47 -113 -134l-152 -190l-162 -219q-81 -115 -142 -219h586v-160h-813z" />
<glyph unicode="{" horiz-adv-x="690" d="M86 539v147q49 0 84 17.5t58.5 45t34.5 63.5t11 73v368q0 84 18.5 149.5t63.5 109.5t120 68t186 24h8v-150q-117 0 -167 -42t-50 -161v-315q0 -135 -36 -209t-102 -115q66 -41 102 -114.5t36 -208.5v-316q0 -119 50 -160.5t167 -41.5v-150h-8q-111 0 -186 22.5t-120 67.5 t-63.5 110.5t-18.5 149.5v369q0 37 -11 73t-34.5 63.5t-58.5 45t-84 17.5z" />
<glyph unicode="|" horiz-adv-x="579" d="M201 -379v1983h178v-1983h-178z" />
<glyph unicode="}" horiz-adv-x="690" d="M20 -229q117 0 167.5 42t50.5 160v316q0 135 35.5 208.5t101.5 114.5q-66 41 -101.5 115t-35.5 209v315q0 119 -50.5 161t-167.5 42v150h9q111 0 185.5 -24t119.5 -68t63.5 -109.5t18.5 -149.5v-368q0 -37 11 -73t34.5 -63.5t58.5 -45t84 -17.5v-147q-49 0 -84 -17.5 t-58.5 -45t-34.5 -63.5t-11 -73v-369q0 -84 -18.5 -149.5t-63.5 -110.5t-120 -67.5t-185 -22.5h-9v150z" />
<glyph unicode="~" horiz-adv-x="1163" d="M90 496q8 39 26.5 89t50.5 94t82 73.5t122 29.5q61 0 113.5 -24.5t99.5 -52.5l106 -65q51 -32 109 -32q33 0 55.5 15.5t38.5 39t26.5 51t18.5 54.5l131 -37q-8 -41 -25.5 -90t-50 -93t-83 -74t-122.5 -30q-61 0 -113 25t-100 53l-106 65q-51 32 -109 31q-33 0 -55 -15 t-38.5 -38.5t-27 -51.5t-18.5 -54z" />
<glyph unicode="&#xa1;" horiz-adv-x="573" d="M150 928q0 55 36.5 96t100.5 41q63 0 100 -41t37 -96t-37 -96t-100 -41t-100 41t-37 96zM184 4q0 172 12.5 312.5t30.5 279.5h119q18 -139 30.5 -279.5t12.5 -312.5v-383h-205v383z" />
<glyph unicode="&#xa2;" horiz-adv-x="1163" d="M180 596q0 100 28 188t78 158t123.5 117t165.5 65v295h170v-284q119 -6 226 -48l-43 -157q-43 18 -99.5 30.5t-119.5 12.5q-160 0 -245 -96.5t-85 -280.5q0 -82 19.5 -150.5t61.5 -117.5t107.5 -76t159.5 -27q76 0 137.5 14.5t96.5 28.5l26 -155q-29 -16 -98.5 -31.5 t-143.5 -20.5v-284h-170v295q-98 18 -171.5 64t-123 114.5t-75 157t-25.5 188.5z" />
<glyph unicode="&#xa3;" horiz-adv-x="1163" d="M127 610v154h190v170q0 152 32 251t90.5 157.5t140.5 81t180 22.5q90 0 151.5 -16.5t118.5 -38.5l-47 -164q-109 51 -231 51q-55 0 -100.5 -16.5t-77 -55.5t-49 -104.5t-17.5 -163.5v-174h387v-154h-387v-16q0 -102 -8 -215t-25 -215h592v-164h-807q23 145 40 289.5 t17 290.5v30h-190z" />
<glyph unicode="&#xa4;" horiz-adv-x="1163" d="M94 342l150 150q-57 92 -58 219q0 125 58 217l-150 151l119 119l152 -154q96 59 217 60q121 0 215 -60l153 154l119 -119l-151 -151q29 -45 44 -99.5t15 -117.5q0 -66 -15.5 -119t-43.5 -98l151 -152l-119 -119l-153 152q-98 -57 -215 -58q-59 0 -114.5 14.5t-102.5 43.5 l-152 -152zM340 711q0 -59 19.5 -105.5t52 -80t76.5 -51t94 -17.5q49 0 93 17.5t76.5 51t52 79.5t19.5 106q0 57 -19.5 104t-52 81t-76.5 51.5t-93 17.5t-93.5 -17.5t-77 -51.5t-52 -81t-19.5 -104z" />
<glyph unicode="&#xa5;" horiz-adv-x="1163" d="M39 1419h211q74 -160 160 -319.5t178 -306.5q90 147 173 307l159 319h206l-189 -347q-99 -177 -210 -355h281v-146h-332v-209h332v-145h-332v-217h-187v217h-331v145h331v209h-331v146h278l-210 357z" />
<glyph unicode="&#xa6;" horiz-adv-x="579" d="M201 -379v785h178v-785h-178zM201 819v785h178v-785h-178z" />
<glyph unicode="&#xa7;" horiz-adv-x="1015" d="M92 633q0 53 17.5 99t43 84t58.5 65.5t63 46.5q-51 41 -80.5 94t-29.5 123q0 141 99 224t280 83q104 0 194 -20.5t144 -36.5l-43 -158q-49 18 -120 38.5t-177 20.5q-80 0 -138.5 -33.5t-58.5 -101.5q0 -37 12.5 -62.5t39 -47t67.5 -40t98 -36.5q74 -25 140.5 -53.5 t116.5 -69.5t79 -98.5t29 -139.5q0 -51 -16.5 -96t-41 -82t-56.5 -66.5t-62 -47.5q59 -43 96 -100.5t37 -133.5q0 -154 -108.5 -232.5t-309.5 -78.5q-137 0 -226 21.5t-143 47.5l47 152q61 -27 135 -45.5t189 -18.5t173 34t58 108q0 72 -55 111.5t-186 84.5 q-74 25 -140.5 53.5t-116.5 69.5t-79 98.5t-29 139.5zM266 651q0 -53 23.5 -89t65.5 -63.5t99.5 -49t125.5 -43.5l19 -7.5l19 -7.5q59 39 96.5 90t37.5 115q0 53 -23.5 89t-64.5 62.5t-94.5 47t-114.5 41.5q-14 4 -27.5 9l-28.5 11q-59 -39 -96 -91.5t-37 -113.5z" />
<glyph unicode="&#xa8;" horiz-adv-x="778" d="M76 1382q0 53 35.5 87t83.5 34q47 0 82.5 -33.5t35.5 -87.5q0 -53 -35.5 -86.5t-82.5 -33.5t-83 33.5t-36 86.5zM465 1382q0 53 36 87t83 34t82.5 -33.5t35.5 -87.5q0 -53 -35.5 -86.5t-82.5 -33.5t-83 33.5t-36 86.5z" />
<glyph unicode="&#xa9;" horiz-adv-x="1675" d="M137 711q0 174 57.5 312t153.5 233.5t223 145.5t267 50q139 0 266 -50t223 -145.5t153.5 -233.5t57.5 -312t-57.5 -312.5t-153.5 -233.5t-223 -145.5t-266 -50.5t-266.5 50.5t-223.5 145.5t-153.5 233.5t-57.5 312.5zM287 711q0 -135 41 -247t113.5 -191.5t174 -123 t222.5 -43.5t222 43.5t174 123t114 191t41 247.5q0 135 -41 246.5t-114 191.5t-174.5 123t-221.5 43q-121 0 -222.5 -43t-174 -123t-113.5 -191.5t-41 -246.5zM469 711q0 100 31.5 178t85 132t125 83t151.5 29q53 0 97.5 -8.5t77 -19.5t54 -22.5t29.5 -17.5l-47 -123 q-25 14 -79 33.5t-126 19.5q-104 0 -173.5 -72.5t-69.5 -211.5q0 -127 63.5 -208t185.5 -81q80 0 132.5 17.5t80.5 31.5l39 -123q-10 -6 -33.5 -17.5t-58.5 -20.5t-79 -16t-93 -7q-88 0 -159.5 28.5t-124 82t-81 132.5t-28.5 181z" />
<glyph unicode="&#xaa;" horiz-adv-x="804" d="M82 913q0 63 26.5 108.5t71.5 73t104.5 40t125.5 12.5q29 0 63.5 -2t77.5 -8v6q0 31 -6 61.5t-24.5 54t-51.5 39t-86 15.5q-47 0 -103.5 -6.5t-97.5 -20.5l-20 129q39 10 101.5 20.5t127.5 10.5q84 0 141.5 -20.5t93.5 -57.5t51 -89t15 -118v-459q-49 -10 -133 -19 t-168 -9q-68 0 -124 13t-97 42t-64.5 73.5t-23.5 110.5zM225 913q0 -61 48.5 -86.5t132.5 -25.5q45 0 90 2t55 6v205q-23 4 -57.5 6t-67.5 2q-35 0 -71 -4t-64.5 -16.5t-47 -34t-18.5 -54.5z" />
<glyph unicode="&#xab;" horiz-adv-x="1030" d="M66 582l319 452l133 -71l-227 -381l227 -381l-133 -72zM492 582l319 452l133 -71l-227 -381l227 -381l-133 -72z" />
<glyph unicode="&#xac;" horiz-adv-x="1163" d="M113 645v162h938v-698h-164v536h-774z" />
<glyph unicode="&#xad;" horiz-adv-x="620" d="M57 702h506v-178h-506v178z" />
<glyph unicode="&#xae;" horiz-adv-x="1675" d="M137 711q0 174 57.5 312t153.5 233.5t223 145.5t267 50q139 0 266 -50t223 -145.5t153.5 -233.5t57.5 -312t-57.5 -312.5t-153.5 -233.5t-223 -145.5t-266 -50.5t-266.5 50.5t-223.5 145.5t-153.5 233.5t-57.5 312.5zM287 711q0 -135 41 -247t113.5 -191.5t174 -123 t222.5 -43.5t222 43.5t174 123t114 191t41 247.5q0 135 -41 246.5t-114 191.5t-174.5 123t-221.5 43q-121 0 -222.5 -43t-174 -123t-113.5 -191.5t-41 -246.5zM551 303v795q55 12 116.5 18t112.5 6q176 0 268.5 -65.5t92.5 -198.5q0 -76 -40 -132t-114 -87l47 -61.5 t56 -81.5l57 -95q29 -49 51 -98h-158q-47 92 -105 175t-101 132h-138v-307h-145zM696 729h78q92 0 153.5 25.5t61.5 105.5q0 76 -58.5 105.5t-139.5 29.5q-23 0 -47.5 -1t-47.5 -3v-262z" />
<glyph unicode="&#xaf;" horiz-adv-x="778" d="M98 1309v147h582v-147h-582z" />
<glyph unicode="&#xb0;" horiz-adv-x="688" d="M57 1305q0 66 23.5 119t62.5 89.5t91.5 56t109.5 19.5t109.5 -19.5t91.5 -56t62.5 -90t23.5 -118.5q0 -66 -23.5 -119t-62.5 -90t-91.5 -56.5t-109.5 -19.5t-109.5 19.5t-91.5 56.5t-62.5 90t-23.5 119zM195 1305q0 -72 44 -114t105 -42t105.5 42t44.5 114t-44 113.5 t-106 41.5q-61 0 -105 -41.5t-44 -113.5z" />
<glyph unicode="&#xb1;" horiz-adv-x="1163" d="M113 0v162h938v-162h-938zM113 696v162h387v412h164v-412h387v-162h-387v-411h-164v411h-387z" />
<glyph unicode="&#xb2;" horiz-adv-x="743" d="M66 1343q35 37 105.5 73t162.5 36q141 0 208.5 -59.5t67.5 -167.5q0 -43 -19.5 -84t-52 -81t-75.5 -80l-92 -83q-35 -29 -69 -62.5t-40 -60.5h381v-129h-545q-6 68 9.5 120t45 95t68.5 79l82 73q70 59 114 109t44 100q0 53 -34 77.5t-93 24.5q-35 0 -65.5 -9t-55.5 -22.5 t-44 -27l-30 -21.5z" />
<glyph unicode="&#xb3;" horiz-adv-x="743" d="M70 676l30 123q45 -16 95.5 -29.5t103.5 -13.5q109 0 149.5 33.5t40.5 87.5q0 35 -18 59.5t-50 39.5t-73 22.5t-84 7.5h-39v116h51q29 0 61 5.5t57.5 17.5t42 33.5t16.5 52.5q0 51 -38 72.5t-98 21.5q-55 0 -102 -19.5t-82 -35.5l-51 112q33 23 101.5 46.5t138.5 23.5 q150 0 212 -60.5t62 -154.5q0 -100 -113 -164q72 -23 114 -75t42 -124q0 -53 -18.5 -97t-59.5 -77.5t-105.5 -52t-154.5 -18.5q-63 0 -128.5 14.5t-102.5 32.5z" />
<glyph unicode="&#xb4;" horiz-adv-x="778" d="M264 1274l262 315l123 -121l-289 -280z" />
<glyph unicode="&#xb5;" horiz-adv-x="1196" d="M168 -379v1444h190v-569q0 -195 63.5 -273t205.5 -78q31 0 63.5 2.5t61 5.5t52 6t34.5 7v899h190v-1034q-66 -16 -169 -35t-226 -19q-113 0 -179.5 24t-107.5 69q6 -57 8 -115.5t2 -122.5v-211h-188z" />
<glyph unicode="&#xb6;" horiz-adv-x="1331" d="M92 981q0 113 46 197t132 141t209 86t275 29q86 0 184 -7.5t182 -27.5v-1778h-159v1645q-29 4 -72 7t-94 3q-16 0 -33 -1t-29 -3v-1651h-160v916q-227 23 -354 129t-127 315z" />
<glyph unicode="&#xb7;" horiz-adv-x="512" d="M119 603q0 55 37 96t100 41t100 -41t37 -96t-37 -96.5t-100 -41.5t-100 41.5t-37 96.5z" />
<glyph unicode="&#xb8;" horiz-adv-x="778" d="M145 -360l23 116q25 -8 52.5 -14t62.5 -6q74 0 73 47q0 23 -22.5 38t-63.5 32l-14 6q6 20 18 48l25 54q12 27 23.5 48.5t17.5 31.5h131l-31 -57q-18 -35 -28 -60q59 -29 85.5 -62.5t26.5 -99.5q0 -23 -10 -49t-34.5 -48.5t-65.5 -37t-101 -14.5q-53 0 -97 8.5t-71 18.5z " />
<glyph unicode="&#xb9;" horiz-adv-x="743" d="M106 1272q78 27 154 68.5t131 95.5h101v-791h-144v602q-45 -29 -103.5 -51t-99.5 -35z" />
<glyph unicode="&#xba;" horiz-adv-x="921" d="M92 1061q0 88 27.5 160.5t77 123t117 78t147.5 27.5t147.5 -27.5t116.5 -78t76.5 -123t27.5 -160.5t-27.5 -160t-76.5 -123t-116.5 -78.5t-147.5 -27.5t-147.5 27.5t-117 78.5t-77 123t-27.5 160zM244 1061q0 -113 56 -182.5t161 -69.5q104 0 160.5 69.5t56.5 182.5 q0 115 -56.5 183.5t-160.5 68.5q-102 0 -159.5 -68.5t-57.5 -183.5z" />
<glyph unicode="&#xbb;" horiz-adv-x="1030" d="M86 201l227 381l-227 381l133 71l320 -452l-320 -453zM512 201l227 381l-227 381l133 71l320 -452l-320 -453z" />
<glyph unicode="&#xbc;" horiz-adv-x="1798" d="M106 1272q78 27 154 68.5t131 95.5h101v-791h-144v602q-45 -29 -103.5 -51t-99.5 -35zM405 0l801 1419h178l-801 -1419h-178zM1108 197v94q29 51 74 116.5t98.5 135t112.5 136t119 118.5h131v-480h102v-120h-102v-191h-139v191h-396zM1262 317h242v310q-63 -66 -129 -149 t-113 -161z" />
<glyph unicode="&#xbd;" horiz-adv-x="1798" d="M106 1272q78 27 154 68.5t131 95.5h101v-791h-144v602q-45 -29 -103.5 -51t-99.5 -35zM362 0l801 1419h178l-801 -1419h-178zM1121 704q35 37 105.5 73t162.5 36q141 0 208.5 -59.5t67.5 -167.5q0 -43 -19.5 -84t-52 -81t-75.5 -80l-92 -83q-35 -29 -69 -62.5t-40 -60.5 h381v-129h-545q-6 68 9.5 120t45 95t68.5 79l82 73q70 59 114 109t44 100q0 53 -34 77.5t-93 24.5q-35 0 -65.5 -9t-55.5 -22.5t-44 -27l-30 -21.5z" />
<glyph unicode="&#xbe;" horiz-adv-x="1798" d="M70 676l30 123q45 -16 95.5 -29.5t103.5 -13.5q109 0 149.5 33.5t40.5 87.5q0 35 -18 59.5t-50 39.5t-73 22.5t-84 7.5h-39v116h51q29 0 61 5.5t57.5 17.5t42 33.5t16.5 52.5q0 51 -38 72.5t-98 21.5q-55 0 -102 -19.5t-82 -35.5l-51 112q33 23 101.5 46.5t138.5 23.5 q150 0 212 -60.5t62 -154.5q0 -100 -113 -164q72 -23 114 -75t42 -124q0 -53 -18.5 -97t-59.5 -77.5t-105.5 -52t-154.5 -18.5q-63 0 -128.5 14.5t-102.5 32.5zM436 0l801 1419h178l-801 -1419h-178zM1108 197v94q29 51 74 116.5t98.5 135t112.5 136t119 118.5h131v-480h102 v-120h-102v-191h-139v191h-396zM1262 317h242v310q-63 -66 -129 -149t-113 -161z" />
<glyph unicode="&#xbf;" horiz-adv-x="835" d="M61 -70q0 68 26 121t64.5 101.5t83 91.5t83 91t64.5 101t26 121v20q0 9 -2 19h159q8 -41 8 -80q0 -66 -23.5 -119t-57 -99t-74.5 -87t-75 -82t-57.5 -84t-23.5 -92q0 -78 56.5 -128t156.5 -50q135 0 264 69l54 -147q-70 -37 -157 -59.5t-185 -22.5q-111 0 -184.5 28.5 t-120 73.5t-66 101.5t-19.5 111.5zM338 928q0 55 37 96t100 41t100 -41t37 -96t-36.5 -96t-100.5 -41q-63 0 -100 41t-37 96z" />
<glyph unicode="&#xc0;" horiz-adv-x="1366" d="M20 0l154 417l140 363l137 329q68 157 141 310h182q74 -154 141 -310l137 -329l140 -363l154 -417h-218l-65 181l-64 181h-643l-129 -362h-207zM414 526h528l-130 345q-65 167 -134 321q-72 -154 -136 -321zM436 1787l123 121l262 -315l-96 -86z" />
<glyph unicode="&#xc1;" horiz-adv-x="1366" d="M20 0l154 417l140 363l137 329q68 157 141 310h182q74 -154 141 -310l137 -329l140 -363l154 -417h-218l-65 181l-64 181h-643l-129 -362h-207zM414 526h528l-130 345q-65 167 -134 321q-72 -154 -136 -321zM555 1593l262 315l123 -121l-289 -280z" />
<glyph unicode="&#xc2;" horiz-adv-x="1366" d="M20 0l154 417l140 363l137 329q68 157 141 310h182q74 -154 141 -310l137 -329l140 -363l154 -417h-218l-65 181l-64 181h-643l-129 -362h-207zM414 526h528l-130 345q-65 167 -134 321q-72 -154 -136 -321zM404 1601l278 293l279 -293l-80 -90l-199 180l-199 -180z" />
<glyph unicode="&#xc3;" horiz-adv-x="1366" d="M20 0l154 417l140 363l137 329q68 157 141 310h182q74 -154 141 -310l137 -329l140 -363l154 -417h-218l-65 181l-64 181h-643l-129 -362h-207zM414 526h528l-130 345q-65 167 -134 321q-72 -154 -136 -321zM346 1628q8 25 26.5 57.5t45.5 60t62.5 47t78.5 19.5 q41 0 77 -14.5t69 -30.5q35 -16 59.5 -24.5t46.5 -8.5q35 0 64.5 29t46.5 61l98 -49q-10 -25 -27.5 -57.5t-44 -60t-62.5 -47t-79 -19.5q-41 0 -77 14t-68 31q-35 16 -59.5 24.5t-47.5 8.5q-35 0 -64.5 -29t-45.5 -61z" />
<glyph unicode="&#xc4;" horiz-adv-x="1366" d="M20 0l154 417l140 363l137 329q68 157 141 310h182q74 -154 141 -310l137 -329l140 -363l154 -417h-218l-65 181l-64 181h-643l-129 -362h-207zM414 526h528l-130 345q-65 167 -134 321q-72 -154 -136 -321zM369 1701q0 53 35.5 87t83.5 34q47 0 82.5 -33.5t35.5 -87.5 q0 -53 -35.5 -86.5t-82.5 -33.5t-83 33.5t-36 86.5zM758 1701q0 53 36 87t83 34t82.5 -33.5t35.5 -87.5q0 -53 -35.5 -86.5t-82.5 -33.5t-83 33.5t-36 86.5z" />
<glyph unicode="&#xc5;" horiz-adv-x="1366" d="M20 0l144 390l132 344l127 310l130 293q-39 29 -61.5 72t-22.5 100q0 49 17.5 87t46 66t66.5 42t81 14t81 -14t66.5 -42t46 -65.5t17.5 -87.5q0 -55 -22.5 -97t-59.5 -71l131 -293l128 -312l132 -344l146 -392h-218q-35 92 -65 182l-64 183h-643l-129 -365h-207zM414 526 h528l-130 345q-65 167 -134 321q-72 -154 -136 -320zM571 1509q0 -53 32 -82.5t77 -29.5t76.5 29.5t31.5 82.5t-31.5 83t-76.5 30t-77 -30t-32 -83z" />
<glyph unicode="&#xc6;" horiz-adv-x="1923" d="M16 0l229 417l218 369l210 331l206 302h913v-166h-616v-428h542v-161h-542v-498h667v-166h-864v365h-559l-97 -182l-94 -183h-213zM512 526h467v738q-109 -147 -225 -334z" />
<glyph unicode="&#xc7;" horiz-adv-x="1277" d="M123 711q0 178 54 316t146.5 232.5t215.5 143.5t262 49q88 0 158.5 -12.5t123 -28.5t85 -32.5t44.5 -24.5l-57 -164q-18 12 -53 26.5t-79 29t-96.5 23.5t-105.5 9q-113 0 -203 -39t-153.5 -112.5t-97 -179t-33.5 -236.5q0 -127 29.5 -231.5t89 -179.5t148.5 -116t208 -41 q137 0 227 29t135 51l52 -164q-29 -23 -138.5 -54.5t-277.5 -35.5q-6 -12 -11 -23.5t-10 -21.5q59 -29 86 -62.5t27 -99.5q0 -23 -10 -49t-35 -48.5t-65.5 -37t-100.5 -14.5q-53 0 -97 8t-71 19l23 116q25 -8 52.5 -14t61.5 -6q74 0 74 47q0 23 -22.5 38t-63.5 32l-14 6 q8 25 21.5 57.5t27.5 60.5q-127 16 -229.5 72.5t-175 150t-112.5 221.5t-40 290z" />
<glyph unicode="&#xc8;" horiz-adv-x="1177" d="M180 0v1419h867v-170h-668v-422h594v-165h-594v-492h719v-170h-918zM414 1787l123 121l262 -315l-96 -86z" />
<glyph unicode="&#xc9;" horiz-adv-x="1177" d="M180 0v1419h867v-170h-668v-422h594v-165h-594v-492h719v-170h-918zM522 1593l262 315l123 -121l-289 -280z" />
<glyph unicode="&#xca;" horiz-adv-x="1177" d="M180 0v1419h867v-170h-668v-422h594v-165h-594v-492h719v-170h-918zM334 1601l278 293l279 -293l-80 -90l-199 180l-199 -180z" />
<glyph unicode="&#xcb;" horiz-adv-x="1177" d="M180 0v1419h867v-170h-668v-422h594v-165h-594v-492h719v-170h-918zM299 1701q0 53 35.5 87t83.5 34q47 0 82.5 -33.5t35.5 -87.5q0 -53 -35.5 -86.5t-82.5 -33.5t-83 33.5t-36 86.5zM688 1701q0 53 36 87t83 34t82.5 -33.5t35.5 -87.5q0 -53 -35.5 -86.5t-82.5 -33.5 t-83 33.5t-36 86.5z" />
<glyph unicode="&#xcc;" horiz-adv-x="559" d="M180 0v1419h199v-1419h-199zM35 1787l123 121l262 -315l-96 -86z" />
<glyph unicode="&#xcd;" horiz-adv-x="559" d="M180 0v1419h199v-1419h-199zM143 1593l262 315l123 -121l-289 -280z" />
<glyph unicode="&#xce;" horiz-adv-x="559" d="M180 0v1419h199v-1419h-199zM2 1601l278 293l279 -293l-80 -90l-199 180l-199 -180z" />
<glyph unicode="&#xcf;" horiz-adv-x="559" d="M180 0v1419h199v-1419h-199zM-33 1701q0 53 35.5 87t83.5 34q47 0 82.5 -33.5t35.5 -87.5q0 -53 -35.5 -86.5t-82.5 -33.5t-83 33.5t-36 86.5zM356 1701q0 53 36 87t83 34t82.5 -33.5t35.5 -87.5q0 -53 -35.5 -86.5t-82.5 -33.5t-83 33.5t-36 86.5z" />
<glyph unicode="&#xd0;" horiz-adv-x="1495" d="M43 664v153h164v582q84 20 187.5 27.5t189.5 7.5q174 0 319.5 -44t249.5 -133.5t161.5 -225.5t57.5 -320t-57.5 -320.5t-161.5 -225.5t-249.5 -133t-319.5 -44q-86 0 -189.5 7t-187.5 28v641h-164zM406 168q18 -2 64 -4t130 -2q283 0 422 144.5t139 404.5t-139 404.5 t-422 144.5q-84 0 -130 -2.5t-64 -4.5v-436h266v-153h-266v-496z" />
<glyph unicode="&#xd1;" horiz-adv-x="1499" d="M180 0v1419h158q96 -102 206 -238l217 -281l203 -284q95 -139 160 -247v1050h195v-1419h-166l-103 170l-126 196l-141 205l-144 202l-139 183l-125 152v-1108h-195zM413 1628q8 25 26.5 57.5t45.5 60t62.5 47t78.5 19.5q41 0 77 -14.5t69 -30.5q35 -16 59.5 -24.5 t46.5 -8.5q35 0 64.5 29t46.5 61l98 -49q-10 -25 -27.5 -57.5t-44 -60t-62.5 -47t-79 -19.5q-41 0 -77 14t-68 31q-35 16 -59.5 24.5t-47.5 8.5q-35 0 -64.5 -29t-45.5 -61z" />
<glyph unicode="&#xd2;" horiz-adv-x="1601" d="M123 711q0 182 54 321t147.5 232.5t217.5 140.5t263 47q137 0 259 -47t214 -140.5t146.5 -232.5t54.5 -321t-54.5 -321.5t-146.5 -233t-214 -140.5t-259 -47q-139 0 -263 47t-217.5 140.5t-147.5 233t-54 321.5zM332 711q0 -129 32.5 -234.5t93 -179.5t147.5 -114 t196 -40t194.5 40t146 114t93.5 179.5t33 234.5t-33 234.5t-93.5 179t-146.5 113.5t-194 40q-109 0 -196 -40t-147.5 -113.5t-93 -179t-32.5 -234.5zM555 1787l123 121l262 -315l-96 -86z" />
<glyph unicode="&#xd3;" horiz-adv-x="1601" d="M123 711q0 182 54 321t147.5 232.5t217.5 140.5t263 47q137 0 259 -47t214 -140.5t146.5 -232.5t54.5 -321t-54.5 -321.5t-146.5 -233t-214 -140.5t-259 -47q-139 0 -263 47t-217.5 140.5t-147.5 233t-54 321.5zM332 711q0 -129 32.5 -234.5t93 -179.5t147.5 -114 t196 -40t194.5 40t146 114t93.5 179.5t33 234.5t-33 234.5t-93.5 179t-146.5 113.5t-194 40q-109 0 -196 -40t-147.5 -113.5t-93 -179t-32.5 -234.5zM663 1593l262 315l123 -121l-289 -280z" />
<glyph unicode="&#xd4;" horiz-adv-x="1601" d="M123 711q0 182 54 321t147.5 232.5t217.5 140.5t263 47q137 0 259 -47t214 -140.5t146.5 -232.5t54.5 -321t-54.5 -321.5t-146.5 -233t-214 -140.5t-259 -47q-139 0 -263 47t-217.5 140.5t-147.5 233t-54 321.5zM332 711q0 -129 32.5 -234.5t93 -179.5t147.5 -114 t196 -40t194.5 40t146 114t93.5 179.5t33 234.5t-33 234.5t-93.5 179t-146.5 113.5t-194 40q-109 0 -196 -40t-147.5 -113.5t-93 -179t-32.5 -234.5zM523 1601l278 293l279 -293l-80 -90l-199 180l-199 -180z" />
<glyph unicode="&#xd5;" horiz-adv-x="1601" d="M123 711q0 182 54 321t147.5 232.5t217.5 140.5t263 47q137 0 259 -47t214 -140.5t146.5 -232.5t54.5 -321t-54.5 -321.5t-146.5 -233t-214 -140.5t-259 -47q-139 0 -263 47t-217.5 140.5t-147.5 233t-54 321.5zM332 711q0 -129 32.5 -234.5t93 -179.5t147.5 -114 t196 -40t194.5 40t146 114t93.5 179.5t33 234.5t-33 234.5t-93.5 179t-146.5 113.5t-194 40q-109 0 -196 -40t-147.5 -113.5t-93 -179t-32.5 -234.5zM465 1628q8 25 26.5 57.5t45.5 60t62.5 47t78.5 19.5q41 0 77 -14.5t69 -30.5q35 -16 59.5 -24.5t46.5 -8.5q35 0 64.5 29 t46.5 61l98 -49q-10 -25 -27.5 -57.5t-44 -60t-62.5 -47t-79 -19.5q-41 0 -77 14t-68 31q-35 16 -59.5 24.5t-47.5 8.5q-35 0 -64.5 -29t-45.5 -61z" />
<glyph unicode="&#xd6;" horiz-adv-x="1601" d="M123 711q0 182 54 321t147.5 232.5t217.5 140.5t263 47q137 0 259 -47t214 -140.5t146.5 -232.5t54.5 -321t-54.5 -321.5t-146.5 -233t-214 -140.5t-259 -47q-139 0 -263 47t-217.5 140.5t-147.5 233t-54 321.5zM332 711q0 -129 32.5 -234.5t93 -179.5t147.5 -114 t196 -40t194.5 40t146 114t93.5 179.5t33 234.5t-33 234.5t-93.5 179t-146.5 113.5t-194 40q-109 0 -196 -40t-147.5 -113.5t-93 -179t-32.5 -234.5zM488 1701q0 53 35.5 87t83.5 34q47 0 82.5 -33.5t35.5 -87.5q0 -53 -35.5 -86.5t-82.5 -33.5t-83 33.5t-36 86.5zM877 1701 q0 53 36 87t83 34t82.5 -33.5t35.5 -87.5q0 -53 -35.5 -86.5t-82.5 -33.5t-83 33.5t-36 86.5z" />
<glyph unicode="&#xd7;" horiz-adv-x="1163" d="M168 313l299 299l-299 299l115 115l299 -299l299 299l114 -115l-299 -299l299 -299l-114 -114l-299 299l-299 -299z" />
<glyph unicode="&#xd8;" horiz-adv-x="1601" d="M123 711q0 182 54 321t147.5 232.5t217.5 140.5t263 47q217 0 385 -115l121 158l127 -94l-131 -170q80 -92 126 -222t46 -298q0 -182 -54.5 -321.5t-146.5 -233t-214 -140.5t-259 -47q-109 0 -206 28t-181 83l-119 -154l-127 94l127 164q-82 92 -129 223.5t-47 303.5z M332 711q0 -223 90 -367l653 846q-113 88 -274 88q-109 0 -196 -40t-147.5 -113.5t-93 -179t-32.5 -234.5zM530 227q109 -84 271 -84q109 0 194.5 40t146 114t93.5 179.5t33 234.5q0 109 -22.5 197.5t-63.5 160.5z" />
<glyph unicode="&#xd9;" horiz-adv-x="1417" d="M170 528v891h199v-868q0 -213 94 -309.5t246 -96.5q76 0 138 24t107 73t70 125.5t25 183.5v868h198v-891q0 -119 -31.5 -221t-98 -177t-168 -118t-240.5 -43t-241.5 43t-168.5 118t-97.5 177t-31.5 221zM463 1787l123 121l262 -315l-96 -86z" />
<glyph unicode="&#xda;" horiz-adv-x="1417" d="M170 528v891h199v-868q0 -213 94 -309.5t246 -96.5q76 0 138 24t107 73t70 125.5t25 183.5v868h198v-891q0 -119 -31.5 -221t-98 -177t-168 -118t-240.5 -43t-241.5 43t-168.5 118t-97.5 177t-31.5 221zM571 1593l262 315l123 -121l-289 -280z" />
<glyph unicode="&#xdb;" horiz-adv-x="1417" d="M170 528v891h199v-868q0 -213 94 -309.5t246 -96.5q76 0 138 24t107 73t70 125.5t25 183.5v868h198v-891q0 -119 -31.5 -221t-98 -177t-168 -118t-240.5 -43t-241.5 43t-168.5 118t-97.5 177t-31.5 221zM430 1601l278 293l279 -293l-80 -90l-199 180l-199 -180z" />
<glyph unicode="&#xdc;" horiz-adv-x="1417" d="M170 528v891h199v-868q0 -213 94 -309.5t246 -96.5q76 0 138 24t107 73t70 125.5t25 183.5v868h198v-891q0 -119 -31.5 -221t-98 -177t-168 -118t-240.5 -43t-241.5 43t-168.5 118t-97.5 177t-31.5 221zM395 1701q0 53 35.5 87t83.5 34q47 0 82.5 -33.5t35.5 -87.5 q0 -53 -35.5 -86.5t-82.5 -33.5t-83 33.5t-36 86.5zM784 1701q0 53 36 87t83 34t82.5 -33.5t35.5 -87.5q0 -53 -35.5 -86.5t-82.5 -33.5t-83 33.5t-36 86.5z" />
<glyph unicode="&#xdd;" horiz-adv-x="1232" d="M16 1419h234q78 -168 174 -341t199 -333q100 160 196 333t176 341h222l-236 -417l-264 -429v-573h-199v569l-266 432zM481 1593l262 315l123 -121l-289 -280z" />
<glyph unicode="&#xde;" horiz-adv-x="1255" d="M180 0v1419h199v-231q39 4 81 5t81 1q637 0 637 -453q0 -123 -44 -207.5t-127 -139t-202 -79t-268 -24.5h-158v-291h-199zM379 455h149q102 0 184.5 13t138.5 46t87 88t31 141q0 82 -32 136.5t-89 86t-137 44t-176 12.5h-77q-40 0 -79 -4v-563z" />
<glyph unicode="&#xdf;" horiz-adv-x="1284" d="M168 0v1135q0 102 28.5 186t84 143.5t137.5 92t188 32.5q111 0 191 -24.5t130 -68.5t73.5 -104.5t23.5 -129.5q0 -51 -14.5 -91.5t-36 -74t-46.5 -62.5l-48 -53l-80 -85q-33 -34 -33 -85q0 -31 15.5 -53.5t40 -39t54.5 -30.5l60 -29q55 -27 103 -57.5t84 -70t55.5 -94 t19.5 -130.5q0 -160 -99.5 -246t-307.5 -86q-43 0 -86 6.5t-80 15.5t-65 19.5t-40 16.5l33 166q12 -6 37.5 -16.5t59.5 -20.5t74 -17.5t81 -7.5q102 0 151.5 45t49.5 121q0 80 -47.5 131t-163.5 105q-68 31 -112 58.5t-68.5 56t-35 59t-10.5 71.5q0 82 45 137.5t97 108.5 q20 20 41.5 45t40 50.5t30 52t11.5 55.5q0 90 -53.5 140t-159.5 50q-137 0 -200 -77.5t-63 -215.5v-1130h-190z" />
<glyph unicode="&#xe0;" horiz-adv-x="1077" d="M92 317q0 88 36 151.5t97.5 102.5t143.5 57.5t172 18.5q29 0 59.5 -3t57.5 -8l49 -9q20 -4 28 -6v53q0 47 -10 93t-36.5 82t-73 57.5t-119.5 21.5q-94 0 -165 -13.5t-106 -27.5l-22 157q37 16 123 32t186 16q115 0 193.5 -30t127 -84t69 -129t20.5 -165v-666l-69 -11 q-44 -7 -99.5 -13t-120 -11.5t-127.5 -5.5q-90 0 -166 18.5t-131 58.5t-86 105.5t-31 157.5zM285 319q0 -102 65.5 -142t177.5 -40q68 0 120 3t87 12v317q-20 10 -66 17.5t-112 7.5q-43 0 -91 -6.5t-88 -26t-66.5 -53.5t-26.5 -89zM297 1468l123 121l262 -315l-96 -86z" />
<glyph unicode="&#xe1;" horiz-adv-x="1077" d="M92 317q0 88 36 151.5t97.5 102.5t143.5 57.5t172 18.5q29 0 59.5 -3t57.5 -8l49 -9q20 -4 28 -6v53q0 47 -10 93t-36.5 82t-73 57.5t-119.5 21.5q-94 0 -165 -13.5t-106 -27.5l-22 157q37 16 123 32t186 16q115 0 193.5 -30t127 -84t69 -129t20.5 -165v-666l-69 -11 q-44 -7 -99.5 -13t-120 -11.5t-127.5 -5.5q-90 0 -166 18.5t-131 58.5t-86 105.5t-31 157.5zM285 319q0 -102 65.5 -142t177.5 -40q68 0 120 3t87 12v317q-20 10 -66 17.5t-112 7.5q-43 0 -91 -6.5t-88 -26t-66.5 -53.5t-26.5 -89zM405 1274l262 315l123 -121l-289 -280z " />
<glyph unicode="&#xe2;" horiz-adv-x="1077" d="M92 317q0 88 36 151.5t97.5 102.5t143.5 57.5t172 18.5q29 0 59.5 -3t57.5 -8l49 -9q20 -4 28 -6v53q0 47 -10 93t-36.5 82t-73 57.5t-119.5 21.5q-94 0 -165 -13.5t-106 -27.5l-22 157q37 16 123 32t186 16q115 0 193.5 -30t127 -84t69 -129t20.5 -165v-666l-69 -11 q-44 -7 -99.5 -13t-120 -11.5t-127.5 -5.5q-90 0 -166 18.5t-131 58.5t-86 105.5t-31 157.5zM285 319q0 -102 65.5 -142t177.5 -40q68 0 120 3t87 12v317q-20 10 -66 17.5t-112 7.5q-43 0 -91 -6.5t-88 -26t-66.5 -53.5t-26.5 -89zM265 1282l278 293l279 -293l-80 -90 l-199 180l-199 -180z" />
<glyph unicode="&#xe3;" horiz-adv-x="1077" d="M92 317q0 88 36 151.5t97.5 102.5t143.5 57.5t172 18.5q29 0 59.5 -3t57.5 -8l49 -9q20 -4 28 -6v53q0 47 -10 93t-36.5 82t-73 57.5t-119.5 21.5q-94 0 -165 -13.5t-106 -27.5l-22 157q37 16 123 32t186 16q115 0 193.5 -30t127 -84t69 -129t20.5 -165v-666l-69 -11 q-44 -7 -99.5 -13t-120 -11.5t-127.5 -5.5q-90 0 -166 18.5t-131 58.5t-86 105.5t-31 157.5zM285 319q0 -102 65.5 -142t177.5 -40q68 0 120 3t87 12v317q-20 10 -66 17.5t-112 7.5q-43 0 -91 -6.5t-88 -26t-66.5 -53.5t-26.5 -89zM207 1309q8 25 26.5 57.5t45.5 60t62.5 47 t78.5 19.5q41 0 77 -14.5t69 -30.5q35 -16 59.5 -24.5t46.5 -8.5q35 0 64.5 29t46.5 61l98 -49q-10 -25 -27.5 -57.5t-44 -60t-62.5 -47t-79 -19.5q-41 0 -77 14t-68 31q-35 16 -59.5 24.5t-47.5 8.5q-35 0 -64.5 -29t-45.5 -61z" />
<glyph unicode="&#xe4;" horiz-adv-x="1077" d="M92 317q0 88 36 151.5t97.5 102.5t143.5 57.5t172 18.5q29 0 59.5 -3t57.5 -8l49 -9q20 -4 28 -6v53q0 47 -10 93t-36.5 82t-73 57.5t-119.5 21.5q-94 0 -165 -13.5t-106 -27.5l-22 157q37 16 123 32t186 16q115 0 193.5 -30t127 -84t69 -129t20.5 -165v-666l-69 -11 q-44 -7 -99.5 -13t-120 -11.5t-127.5 -5.5q-90 0 -166 18.5t-131 58.5t-86 105.5t-31 157.5zM285 319q0 -102 65.5 -142t177.5 -40q68 0 120 3t87 12v317q-20 10 -66 17.5t-112 7.5q-43 0 -91 -6.5t-88 -26t-66.5 -53.5t-26.5 -89zM230 1382q0 53 35.5 87t83.5 34 q47 0 82.5 -33.5t35.5 -87.5q0 -53 -35.5 -86.5t-82.5 -33.5t-83 33.5t-36 86.5zM619 1382q0 53 36 87t83 34t82.5 -33.5t35.5 -87.5q0 -53 -35.5 -86.5t-82.5 -33.5t-83 33.5t-36 86.5z" />
<glyph unicode="&#xe5;" horiz-adv-x="1077" d="M92 317q0 88 36 151.5t97.5 102.5t143.5 57.5t172 18.5q29 0 59.5 -3t57.5 -8l49 -9q20 -4 28 -6v53q0 47 -10 93t-36.5 82t-73 57.5t-119.5 21.5q-94 0 -165 -13.5t-106 -27.5l-22 157q37 16 123 32t186 16q115 0 193.5 -30t127 -84t69 -129t20.5 -165v-666l-69 -11 q-44 -7 -99.5 -13t-120 -11.5t-127.5 -5.5q-90 0 -166 18.5t-131 58.5t-86 105.5t-31 157.5zM285 319q0 -102 65.5 -142t177.5 -40q68 0 120 3t87 12v317q-20 10 -66 17.5t-112 7.5q-43 0 -91 -6.5t-88 -26t-66.5 -53.5t-26.5 -89zM332 1386q0 49 17.5 87t46 66t66.5 42 t81 14t81 -14t66.5 -42t46 -65.5t17.5 -87.5q0 -49 -17.5 -86.5t-46 -65.5t-66.5 -42t-81 -14t-81 14t-66.5 42t-46 65.5t-17.5 86.5zM435 1386q0 -53 31.5 -82.5t76.5 -29.5t77 29.5t32 82.5t-32 83t-77 30t-76.5 -30t-31.5 -83z" />
<glyph unicode="&#xe6;" horiz-adv-x="1767" d="M94 317q0 88 36 151.5t97.5 102.5t143.5 57.5t172 18.5q29 0 59.5 -3t56.5 -8l48 -9q20 -4 28 -6v53q0 47 -10 93t-36.5 82t-73 57.5t-119.5 21.5q-94 0 -165 -13.5t-106 -27.5l-22 157q37 16 122 32t183 16q141 0 224 -48.5t124 -134.5q68 92 160 137.5t192 45.5 q213 0 329 -135.5t116 -407.5q0 -16 -1 -27.5t-1 -21.5v-19h-729q12 -164 97 -251t261 -87q100 0 169 17.5t103 34.5l27 -160q-35 -18 -122 -39t-197 -21q-117 0 -204 28t-153 81q-20 -14 -54 -32.5t-81 -36t-105.5 -29t-127.5 -11.5q-102 0 -183.5 18.5t-138.5 59.5 t-88 106.5t-31 157.5zM287 319q0 -104 66.5 -143t185.5 -39q106 0 167.5 23.5t94.5 46.5q-31 57 -48.5 122.5t-19.5 139.5q-23 10 -65.5 17.5t-108.5 7.5q-43 0 -91 -6.5t-88 -26t-66.5 -53.5t-26.5 -89zM926 635h528q2 129 -64.5 212t-183.5 83q-66 0 -116 -25.5 t-83.5 -66.5t-54 -94.5t-26.5 -108.5z" />
<glyph unicode="&#xe7;" horiz-adv-x="960" d="M109 530q0 123 35.5 225.5t101 177.5t161 117t211.5 42q72 0 144 -12.5t137 -39.5l-43 -161q-43 20 -99.5 32.5t-119.5 12.5q-160 0 -245 -100.5t-85 -293.5q0 -86 19.5 -157.5t61.5 -122.5t107.5 -79t159.5 -28q76 0 137.5 14.5t96.5 30.5l26 -159q-16 -8 -43.5 -17.5 t-62.5 -16.5t-75 -12.5t-79 -7.5l-22 -51q59 -29 85.5 -62.5t26.5 -99.5q0 -23 -10 -49t-34.5 -48.5t-65.5 -37t-100 -14.5q-53 0 -97.5 8t-70.5 19l22 116q25 -8 52.5 -14t62.5 -6q74 0 74 47q0 23 -23 38t-63 32l-15 6q8 25 22.5 59.5t30.5 65.5q-104 14 -183 60 t-132 117.5t-79.5 164.5t-26.5 204z" />
<glyph unicode="&#xe8;" horiz-adv-x="1153" d="M109 530q0 141 40.5 247t108.5 175.5t156 104.5t180 35q215 0 329.5 -134.5t114.5 -408.5v-32q0 -19 -2 -36h-729q12 -166 96 -252t263 -86q100 0 168.5 17.5t103.5 34.5l27 -160q-35 -18 -122 -39t-198 -21q-139 0 -240.5 42t-167 116t-97 175t-31.5 222zM311 635h529 q2 129 -64.5 212t-183.5 83q-66 0 -116 -25.5t-85 -66.5t-54.5 -94.5t-25.5 -108.5zM344 1468l123 121l262 -315l-96 -86z" />
<glyph unicode="&#xe9;" horiz-adv-x="1153" d="M109 530q0 141 40.5 247t108.5 175.5t156 104.5t180 35q215 0 329.5 -134.5t114.5 -408.5v-32q0 -19 -2 -36h-729q12 -166 96 -252t263 -86q100 0 168.5 17.5t103.5 34.5l27 -160q-35 -18 -122 -39t-198 -21q-139 0 -240.5 42t-167 116t-97 175t-31.5 222zM311 635h529 q2 129 -64.5 212t-183.5 83q-66 0 -116 -25.5t-85 -66.5t-54.5 -94.5t-25.5 -108.5zM452 1274l262 315l123 -121l-289 -280z" />
<glyph unicode="&#xea;" horiz-adv-x="1153" d="M109 530q0 141 40.5 247t108.5 175.5t156 104.5t180 35q215 0 329.5 -134.5t114.5 -408.5v-32q0 -19 -2 -36h-729q12 -166 96 -252t263 -86q100 0 168.5 17.5t103.5 34.5l27 -160q-35 -18 -122 -39t-198 -21q-139 0 -240.5 42t-167 116t-97 175t-31.5 222zM311 635h529 q2 129 -64.5 212t-183.5 83q-66 0 -116 -25.5t-85 -66.5t-54.5 -94.5t-25.5 -108.5zM312 1282l278 293l279 -293l-80 -90l-199 180l-199 -180z" />
<glyph unicode="&#xeb;" horiz-adv-x="1153" d="M109 530q0 141 40.5 247t108.5 175.5t156 104.5t180 35q215 0 329.5 -134.5t114.5 -408.5v-32q0 -19 -2 -36h-729q12 -166 96 -252t263 -86q100 0 168.5 17.5t103.5 34.5l27 -160q-35 -18 -122 -39t-198 -21q-139 0 -240.5 42t-167 116t-97 175t-31.5 222zM311 635h529 q2 129 -64.5 212t-183.5 83q-66 0 -116 -25.5t-85 -66.5t-54.5 -94.5t-25.5 -108.5zM277 1382q0 53 35.5 87t83.5 34q47 0 82.5 -33.5t35.5 -87.5q0 -53 -35.5 -86.5t-82.5 -33.5t-83 33.5t-36 86.5zM666 1382q0 53 36 87t83 34t82.5 -33.5t35.5 -87.5q0 -53 -35.5 -86.5 t-82.5 -33.5t-83 33.5t-36 86.5z" />
<glyph unicode="&#xec;" horiz-adv-x="526" d="M168 0v1065h190v-1065h-190zM18 1468l123 121l262 -315l-96 -86z" />
<glyph unicode="&#xed;" horiz-adv-x="526" d="M168 0v1065h190v-1065h-190zM127 1274l262 315l123 -121l-289 -280z" />
<glyph unicode="&#xee;" horiz-adv-x="526" d="M168 0v1065h190v-1065h-190zM-14 1282l278 293l279 -293l-80 -90l-199 180l-199 -180z" />
<glyph unicode="&#xef;" horiz-adv-x="526" d="M168 0v1065h190v-1065h-190zM-49 1382q0 53 35.5 87t83.5 34q47 0 82.5 -33.5t35.5 -87.5q0 -53 -35.5 -86.5t-82.5 -33.5t-83 33.5t-36 86.5zM340 1382q0 53 36 87t83 34t82.5 -33.5t35.5 -87.5q0 -53 -35.5 -86.5t-82.5 -33.5t-83 33.5t-36 86.5z" />
<glyph unicode="&#xf0;" horiz-adv-x="1214" d="M109 508q0 115 33.5 207t95 156.5t150.5 98.5t200 34q104 0 182 -33t115 -62q-25 164 -113 303l-246 -84l-47 129l209 72q-68 80 -172 156l121 104q45 -29 103.5 -79t117.5 -124l254 89l47 -129l-219 -76q66 -111 111 -258.5t45 -339.5q0 -135 -23.5 -261t-81 -223.5 t-155 -156t-244.5 -58.5q-121 0 -212 45t-151.5 119t-90 170.5t-29.5 200.5zM303 508q0 -74 18.5 -140.5t54.5 -116.5t90 -80t126 -30q94 0 154.5 45t94 119t47 168t13.5 193q0 16 -1 32.5t-1 32.5q-70 61 -145.5 84t-141.5 23q-84 0 -142 -26t-95 -71t-54.5 -104 t-17.5 -129z" />
<glyph unicode="&#xf1;" d="M168 0v1034q66 16 174.5 34.5t249.5 18.5q127 0 211 -35.5t134 -100t70.5 -154.5t20.5 -199v-598h-190v557q0 98 -13.5 168t-44 113t-82 62.5t-127.5 19.5q-31 0 -63.5 -2.5t-62 -5.5t-53 -7l-34.5 -6v-899h-190zM262 1309q8 25 26.5 57.5t45.5 60t62.5 47t78.5 19.5 q41 0 77 -14.5t69 -30.5q35 -16 59.5 -24.5t46.5 -8.5q35 0 64.5 29t46.5 61l98 -49q-10 -25 -27.5 -57.5t-44 -60t-62.5 -47t-79 -19.5q-41 0 -77 14t-68 31q-35 16 -59.5 24.5t-47.5 8.5q-35 0 -64.5 -29t-45.5 -61z" />
<glyph unicode="&#xf2;" horiz-adv-x="1216" d="M109 532q0 125 36.5 228.5t103 177.5t159 114t200.5 40q109 0 201 -40t158.5 -114t103.5 -177.5t37 -228.5q0 -127 -37 -229t-103.5 -176t-158.5 -114t-201 -40t-201 40t-158.5 114t-103 176t-36.5 229zM307 532q0 -180 81 -285.5t220 -105.5t220 105.5t81 285.5 t-80.5 286t-220.5 106q-139 0 -220 -106t-81 -286zM362 1468l123 121l262 -315l-96 -86z" />
<glyph unicode="&#xf3;" horiz-adv-x="1216" d="M109 532q0 125 36.5 228.5t103 177.5t159 114t200.5 40q109 0 201 -40t158.5 -114t103.5 -177.5t37 -228.5q0 -127 -37 -229t-103.5 -176t-158.5 -114t-201 -40t-201 40t-158.5 114t-103 176t-36.5 229zM307 532q0 -180 81 -285.5t220 -105.5t220 105.5t81 285.5 t-80.5 286t-220.5 106q-139 0 -220 -106t-81 -286zM471 1274l262 315l123 -121l-289 -280z" />
<glyph unicode="&#xf4;" horiz-adv-x="1216" d="M109 532q0 125 36.5 228.5t103 177.5t159 114t200.5 40q109 0 201 -40t158.5 -114t103.5 -177.5t37 -228.5q0 -127 -37 -229t-103.5 -176t-158.5 -114t-201 -40t-201 40t-158.5 114t-103 176t-36.5 229zM307 532q0 -180 81 -285.5t220 -105.5t220 105.5t81 285.5 t-80.5 286t-220.5 106q-139 0 -220 -106t-81 -286zM330 1282l278 293l279 -293l-80 -90l-199 180l-199 -180z" />
<glyph unicode="&#xf5;" horiz-adv-x="1216" d="M109 532q0 125 36.5 228.5t103 177.5t159 114t200.5 40q109 0 201 -40t158.5 -114t103.5 -177.5t37 -228.5q0 -127 -37 -229t-103.5 -176t-158.5 -114t-201 -40t-201 40t-158.5 114t-103 176t-36.5 229zM307 532q0 -180 81 -285.5t220 -105.5t220 105.5t81 285.5 t-80.5 286t-220.5 106q-139 0 -220 -106t-81 -286zM272 1309q8 25 26.5 57.5t45.5 60t62.5 47t78.5 19.5q41 0 77 -14.5t69 -30.5q35 -16 59.5 -24.5t46.5 -8.5q35 0 64.5 29t46.5 61l98 -49q-10 -25 -27.5 -57.5t-44 -60t-62.5 -47t-79 -19.5q-41 0 -77 14t-68 31 q-35 16 -59.5 24.5t-47.5 8.5q-35 0 -64.5 -29t-45.5 -61z" />
<glyph unicode="&#xf6;" horiz-adv-x="1216" d="M109 532q0 125 36.5 228.5t103 177.5t159 114t200.5 40q109 0 201 -40t158.5 -114t103.5 -177.5t37 -228.5q0 -127 -37 -229t-103.5 -176t-158.5 -114t-201 -40t-201 40t-158.5 114t-103 176t-36.5 229zM307 532q0 -180 81 -285.5t220 -105.5t220 105.5t81 285.5 t-80.5 286t-220.5 106q-139 0 -220 -106t-81 -286zM295 1382q0 53 35.5 87t83.5 34q47 0 82.5 -33.5t35.5 -87.5q0 -53 -35.5 -86.5t-82.5 -33.5t-83 33.5t-36 86.5zM684 1382q0 53 36 87t83 34t82.5 -33.5t35.5 -87.5q0 -53 -35.5 -86.5t-82.5 -33.5t-83 33.5t-36 86.5z " />
<glyph unicode="&#xf7;" horiz-adv-x="1163" d="M113 532v162h938v-162h-938zM459 217q0 57 35.5 91t87.5 34q51 0 87 -34t36 -91t-36 -91t-87 -34t-87 34t-36 91zM459 1008q0 57 35.5 91t87.5 34q51 0 87 -34t36 -91t-36 -91t-87 -34t-87 34t-36 91z" />
<glyph unicode="&#xf8;" horiz-adv-x="1216" d="M109 532q0 125 36.5 228.5t103 177.5t159 114t200.5 40q80 0 150.5 -22.5t130.5 -63.5l100 131l109 -82l-111 -144q57 -72 89 -167t32 -212q0 -127 -37 -229t-103.5 -176t-158.5 -114t-201 -40q-162 0 -280 84l-101 -131l-108 82l110 144q-57 72 -88.5 167.5t-31.5 212.5 zM305 532q0 -133 43 -225l434 561q-74 57 -174 58q-141 0 -222 -106t-81 -288zM434 195q70 -55 174 -56q141 0 222 105.5t81 287.5q0 127 -45 224z" />
<glyph unicode="&#xf9;" d="M156 467v598h190v-557q0 -195 61.5 -279t206.5 -84q31 0 64 2.5t61.5 5.5t52 6t33.5 7v899h191v-1034q-66 -16 -173.5 -35t-248.5 -19q-123 0 -207 36t-135 101.5t-73.5 154.5t-22.5 198zM340 1468l123 121l262 -315l-96 -86z" />
<glyph unicode="&#xfa;" d="M156 467v598h190v-557q0 -195 61.5 -279t206.5 -84q31 0 64 2.5t61.5 5.5t52 6t33.5 7v899h191v-1034q-66 -16 -173.5 -35t-248.5 -19q-123 0 -207 36t-135 101.5t-73.5 154.5t-22.5 198zM448 1274l262 315l123 -121l-289 -280z" />
<glyph unicode="&#xfb;" d="M156 467v598h190v-557q0 -195 61.5 -279t206.5 -84q31 0 64 2.5t61.5 5.5t52 6t33.5 7v899h191v-1034q-66 -16 -173.5 -35t-248.5 -19q-123 0 -207 36t-135 101.5t-73.5 154.5t-22.5 198zM308 1282l278 293l279 -293l-80 -90l-199 180l-199 -180z" />
<glyph unicode="&#xfc;" d="M156 467v598h190v-557q0 -195 61.5 -279t206.5 -84q31 0 64 2.5t61.5 5.5t52 6t33.5 7v899h191v-1034q-66 -16 -173.5 -35t-248.5 -19q-123 0 -207 36t-135 101.5t-73.5 154.5t-22.5 198zM273 1382q0 53 35.5 87t83.5 34q47 0 82.5 -33.5t35.5 -87.5q0 -53 -35.5 -86.5 t-82.5 -33.5t-83 33.5t-36 86.5zM662 1382q0 53 36 87t83 34t82.5 -33.5t35.5 -87.5q0 -53 -35.5 -86.5t-82.5 -33.5t-83 33.5t-36 86.5z" />
<glyph unicode="&#xfd;" horiz-adv-x="1026" d="M8 -352l35 153q23 -10 58.5 -19t70.5 -9q113 0 176.5 50t114.5 163q-129 246 -240.5 521t-185.5 558h205q23 -92 54.5 -198.5t70.5 -219t84 -225.5t94 -217q78 215 135 426t108 434h197q-74 -301 -164 -578.5t-194 -519.5q-41 -92 -85 -158.5t-97.5 -109.5t-120 -63.5 t-150.5 -20.5q-23 0 -47.5 3t-48 8t-43 11.5t-27.5 10.5zM401 1274l262 315l123 -121l-289 -280z" />
<glyph unicode="&#xfe;" horiz-adv-x="1214" d="M168 -379v1935l190 33v-542q53 18 111.5 29t112.5 11q117 0 214 -38.5t165.5 -110.5t106.5 -175.5t38 -232.5q0 -121 -32 -223t-93 -176t-150.5 -115t-203.5 -41q-92 0 -163 25t-106 47v-426h-190zM358 225q35 -29 100.5 -55.5t143.5 -26.5q82 0 140.5 30t95 82t53 123 t16.5 152q0 186 -92 288t-246 102q-31 0 -63.5 -4.5t-62 -9.5t-52 -11t-33.5 -10v-660z" />
<glyph unicode="&#xff;" horiz-adv-x="1026" d="M8 -352l35 153q23 -10 58.5 -19t70.5 -9q113 0 176.5 50t114.5 163q-129 246 -240.5 521t-185.5 558h205q23 -92 54.5 -198.5t70.5 -219t84 -225.5t94 -217q78 215 135 426t108 434h197q-74 -301 -164 -578.5t-194 -519.5q-41 -92 -85 -158.5t-97.5 -109.5t-120 -63.5 t-150.5 -20.5q-23 0 -47.5 3t-48 8t-43 11.5t-27.5 10.5zM226 1382q0 53 35.5 87t83.5 34q47 0 82.5 -33.5t35.5 -87.5q0 -53 -35.5 -86.5t-82.5 -33.5t-83 33.5t-36 86.5zM615 1382q0 53 36 87t83 34t82.5 -33.5t35.5 -87.5q0 -53 -35.5 -86.5t-82.5 -33.5t-83 33.5 t-36 86.5z" />
<glyph unicode="&#x100;" horiz-adv-x="1366" d="M20 0l154 417l140 363l137 329q68 157 141 310h182q74 -154 141 -310l137 -329l140 -363l154 -417h-218l-65 181l-64 181h-643l-129 -362h-207zM414 526h528l-130 345q-65 167 -134 321q-72 -154 -136 -321zM391 1628v147h582v-147h-582z" />
<glyph unicode="&#x101;" horiz-adv-x="1077" d="M92 317q0 88 36 151.5t97.5 102.5t143.5 57.5t172 18.5q29 0 59.5 -3t57.5 -8l49 -9q20 -4 28 -6v53q0 47 -10 93t-36.5 82t-73 57.5t-119.5 21.5q-94 0 -165 -13.5t-106 -27.5l-22 157q37 16 123 32t186 16q115 0 193.5 -30t127 -84t69 -129t20.5 -165v-666l-69 -11 q-44 -7 -99.5 -13t-120 -11.5t-127.5 -5.5q-90 0 -166 18.5t-131 58.5t-86 105.5t-31 157.5zM285 319q0 -102 65.5 -142t177.5 -40q68 0 120 3t87 12v317q-20 10 -66 17.5t-112 7.5q-43 0 -91 -6.5t-88 -26t-66.5 -53.5t-26.5 -89zM252 1309v147h582v-147h-582z" />
<glyph unicode="&#x102;" horiz-adv-x="1366" d="M20 0l154 417l140 363l137 329q68 157 141 310h182q74 -154 141 -310l137 -329l140 -363l154 -417h-218l-65 181l-64 181h-643l-129 -362h-207zM414 526h528l-130 345q-65 167 -134 321q-72 -154 -136 -321zM412 1853h123q2 -23 9 -49.5t23.5 -48t45 -36t71.5 -14.5 t72 14.5t45 36t23.5 48t9.5 49.5h123q2 -68 -18.5 -121t-58.5 -89t-88 -55.5t-108 -19.5q-57 0 -107 19.5t-88 55.5t-58.5 89t-18.5 121z" />
<glyph unicode="&#x103;" horiz-adv-x="1077" d="M92 317q0 88 36 151.5t97.5 102.5t143.5 57.5t172 18.5q29 0 59.5 -3t57.5 -8l49 -9q20 -4 28 -6v53q0 47 -10 93t-36.5 82t-73 57.5t-119.5 21.5q-94 0 -165 -13.5t-106 -27.5l-22 157q37 16 123 32t186 16q115 0 193.5 -30t127 -84t69 -129t20.5 -165v-666l-69 -11 q-44 -7 -99.5 -13t-120 -11.5t-127.5 -5.5q-90 0 -166 18.5t-131 58.5t-86 105.5t-31 157.5zM285 319q0 -102 65.5 -142t177.5 -40q68 0 120 3t87 12v317q-20 10 -66 17.5t-112 7.5q-43 0 -91 -6.5t-88 -26t-66.5 -53.5t-26.5 -89zM270 1534h123q2 -23 9 -49.5t23.5 -48 t45 -36t71.5 -14.5t72 14.5t45 36t23.5 48t9.5 49.5h123q2 -68 -18.5 -121t-58.5 -89t-88 -55.5t-108 -19.5q-57 0 -107 19.5t-88 55.5t-58.5 89t-18.5 121z" />
<glyph unicode="&#x104;" horiz-adv-x="1366" d="M20 0l154 417l140 363l137 329q68 157 141 310h182q74 -154 141 -310l136 -328l139 -362l153 -415q-18 -10 -48.5 -30.5t-61.5 -53.5q-29 -33 -45.5 -57.5t-16.5 -52.5q0 -59 82 -60q14 0 38 3t46 11l15 -124q-23 -10 -59 -16.5t-76 -6.5q-115 0 -170.5 42t-55.5 114 q0 47 25.5 91t60.5 81l30 28l23 23l-66 183l-65 183h-643l-129 -362h-207zM414 526h528l-130 345q-65 167 -134 321q-72 -154 -136 -321z" />
<glyph unicode="&#x105;" horiz-adv-x="1077" d="M92 317q0 88 36 151.5t97.5 102.5t143.5 57.5t172 18.5q29 0 59.5 -3t57.5 -8l49 -9q20 -4 28 -6v53q0 47 -10 93t-36.5 82t-73 57.5t-119.5 21.5q-94 0 -165 -13.5t-106 -27.5l-22 157q37 16 123 32t186 16q115 0 193.5 -30t127 -84t69 -129t20.5 -165v-666l-55 -42 q-30 -24 -60 -56q-29 -33 -47.5 -57.5t-18.5 -52.5q0 -59 82 -60q14 0 38 3t46 11l15 -124q-23 -10 -59 -16.5t-77 -6.5q-115 0 -170 42t-55 114q0 47 28.5 91t63.5 81q10 12 24.5 23.5t24.5 21.5l-97 -8q-50 -4 -99 -5q-90 0 -166 18.5t-131 58.5t-86 105.5t-31 157.5z M285 319q0 -102 65.5 -142t177.5 -40q68 0 120 3t87 12v317q-20 10 -66 17.5t-112 7.5q-43 0 -91 -6.5t-88 -26t-66.5 -53.5t-26.5 -89z" />
<glyph unicode="&#x106;" horiz-adv-x="1277" d="M123 711q0 178 54 316t146.5 232.5t215.5 143.5t262 49q88 0 158.5 -12.5t123 -28.5t85 -32.5t44.5 -24.5l-57 -164q-18 12 -53 26.5t-79 29t-96.5 23.5t-105.5 9q-113 0 -203 -39t-153.5 -112.5t-97 -179t-33.5 -236.5q0 -127 29.5 -231.5t89 -179.5t148.5 -116t208 -41 q137 0 227 29t135 51l52 -164q-14 -10 -51 -25.5t-92.5 -29.5t-129 -24.5t-159.5 -10.5q-150 0 -273 49.5t-211 143.5t-136 232.5t-48 316.5zM618 1593l262 315l123 -121l-289 -280z" />
<glyph unicode="&#x107;" horiz-adv-x="960" d="M109 530q0 123 35.5 225.5t101 177.5t161 117t211.5 42q72 0 144 -12.5t137 -39.5l-43 -161q-43 20 -99.5 32.5t-119.5 12.5q-160 0 -245 -100.5t-85 -293.5q0 -86 19.5 -157.5t61.5 -122.5t107.5 -79t159.5 -28q76 0 137.5 14.5t96.5 30.5l26 -159q-16 -10 -46.5 -19.5 t-69.5 -16.5t-83 -12.5t-85 -5.5q-129 0 -226.5 41t-164 115t-99 175t-32.5 224zM454 1274l262 315l123 -121l-289 -280z" />
<glyph unicode="&#x108;" horiz-adv-x="1277" d="M123 711q0 178 54 316t146.5 232.5t215.5 143.5t262 49q88 0 158.5 -12.5t123 -28.5t85 -32.5t44.5 -24.5l-57 -164q-18 12 -53 26.5t-79 29t-96.5 23.5t-105.5 9q-113 0 -203 -39t-153.5 -112.5t-97 -179t-33.5 -236.5q0 -127 29.5 -231.5t89 -179.5t148.5 -116t208 -41 q137 0 227 29t135 51l52 -164q-14 -10 -51 -25.5t-92.5 -29.5t-129 -24.5t-159.5 -10.5q-150 0 -273 49.5t-211 143.5t-136 232.5t-48 316.5zM478 1601l278 293l279 -293l-80 -90l-199 180l-199 -180z" />
<glyph unicode="&#x109;" horiz-adv-x="960" d="M109 530q0 123 35.5 225.5t101 177.5t161 117t211.5 42q72 0 144 -12.5t137 -39.5l-43 -161q-43 20 -99.5 32.5t-119.5 12.5q-160 0 -245 -100.5t-85 -293.5q0 -86 19.5 -157.5t61.5 -122.5t107.5 -79t159.5 -28q76 0 137.5 14.5t96.5 30.5l26 -159q-16 -10 -46.5 -19.5 t-69.5 -16.5t-83 -12.5t-85 -5.5q-129 0 -226.5 41t-164 115t-99 175t-32.5 224zM314 1282l278 293l279 -293l-80 -90l-199 180l-199 -180z" />
<glyph unicode="&#x10a;" horiz-adv-x="1277" d="M123 711q0 178 54 316t146.5 232.5t215.5 143.5t262 49q88 0 158.5 -12.5t123 -28.5t85 -32.5t44.5 -24.5l-57 -164q-18 12 -53 26.5t-79 29t-96.5 23.5t-105.5 9q-113 0 -203 -39t-153.5 -112.5t-97 -179t-33.5 -236.5q0 -127 29.5 -231.5t89 -179.5t148.5 -116t208 -41 q137 0 227 29t135 51l52 -164q-14 -10 -51 -25.5t-92.5 -29.5t-129 -24.5t-159.5 -10.5q-150 0 -273 49.5t-211 143.5t-136 232.5t-48 316.5zM633 1701q0 57 36 91t87 34t87 -33.5t36 -91.5q0 -57 -36 -91t-87 -34t-87 34t-36 91z" />
<glyph unicode="&#x10b;" horiz-adv-x="960" d="M109 530q0 123 35.5 225.5t101 177.5t161 117t211.5 42q72 0 144 -12.5t137 -39.5l-43 -161q-43 20 -99.5 32.5t-119.5 12.5q-160 0 -245 -100.5t-85 -293.5q0 -86 19.5 -157.5t61.5 -122.5t107.5 -79t159.5 -28q76 0 137.5 14.5t96.5 30.5l26 -159q-16 -10 -46.5 -19.5 t-69.5 -16.5t-83 -12.5t-85 -5.5q-129 0 -226.5 41t-164 115t-99 175t-32.5 224zM469 1382q0 57 36 91t87 34t87 -33.5t36 -91.5q0 -57 -36 -91t-87 -34t-87 34t-36 91z" />
<glyph unicode="&#x10c;" horiz-adv-x="1277" d="M123 711q0 178 54 316t146.5 232.5t215.5 143.5t262 49q88 0 158.5 -12.5t123 -28.5t85 -32.5t44.5 -24.5l-57 -164q-18 12 -53 26.5t-79 29t-96.5 23.5t-105.5 9q-113 0 -203 -39t-153.5 -112.5t-97 -179t-33.5 -236.5q0 -127 29.5 -231.5t89 -179.5t148.5 -116t208 -41 q137 0 227 29t135 51l52 -164q-14 -10 -51 -25.5t-92.5 -29.5t-129 -24.5t-159.5 -10.5q-150 0 -273 49.5t-211 143.5t-136 232.5t-48 316.5zM478 1812l79 90l199 -180l199 180l80 -90l-279 -293z" />
<glyph unicode="&#x10d;" horiz-adv-x="960" d="M109 530q0 123 35.5 225.5t101 177.5t161 117t211.5 42q72 0 144 -12.5t137 -39.5l-43 -161q-43 20 -99.5 32.5t-119.5 12.5q-160 0 -245 -100.5t-85 -293.5q0 -86 19.5 -157.5t61.5 -122.5t107.5 -79t159.5 -28q76 0 137.5 14.5t96.5 30.5l26 -159q-16 -10 -46.5 -19.5 t-69.5 -16.5t-83 -12.5t-85 -5.5q-129 0 -226.5 41t-164 115t-99 175t-32.5 224zM314 1493l79 90l199 -180l199 180l80 -90l-279 -293z" />
<glyph unicode="&#x10e;" horiz-adv-x="1468" d="M180 23v1376q84 20 187.5 27.5t189.5 7.5q174 0 319.5 -44t250 -133.5t162 -225.5t57.5 -320t-57.5 -320.5t-162 -225.5t-250 -133t-319.5 -44q-86 0 -189.5 7.5t-187.5 27.5zM379 168q18 -2 64 -4t130 -2q283 0 422.5 144.5t139.5 404.5t-139.5 404.5t-422.5 144.5 q-84 0 -130 -2.5t-64 -4.5v-1085zM404 1812l79 90l199 -180l199 180l80 -90l-279 -293z" />
<glyph unicode="&#x10f;" horiz-adv-x="1282" d="M109 532q0 123 31.5 225.5t93 176.5t150.5 115t204 41q92 0 162.5 -25t105.5 -47v538l191 33v-1558q-66 -18 -168.5 -37t-235.5 -19q-123 0 -221 39t-168 111t-107.5 175t-37.5 232zM307 532q0 -186 92.5 -287.5t245.5 -101.5q78 0 130 7.5t81 15.5v674 q-35 29 -100.5 55.5t-143.5 26.5q-82 0 -140 -30t-95 -82t-53.5 -124t-16.5 -154zM1190 1133v456h183l-56 -456h-127z" />
<glyph unicode="&#x110;" horiz-adv-x="1495" d="M43 664v153h164v582q84 20 187.5 27.5t189.5 7.5q174 0 319.5 -44t249.5 -133.5t161.5 -225.5t57.5 -320t-57.5 -320.5t-161.5 -225.5t-249.5 -133t-319.5 -44q-86 0 -189.5 7t-187.5 28v641h-164zM406 168q18 -2 64 -4t130 -2q283 0 422 144.5t139 404.5t-139 404.5 t-422 144.5q-84 0 -130 -2.5t-64 -4.5v-436h266v-153h-266v-496z" />
<glyph unicode="&#x111;" horiz-adv-x="1214" d="M109 530q0 123 31.5 224.5t93 174t150.5 112.5t204 40q92 0 162.5 -24.5t105.5 -46.5v247h-362v142h362v157l191 33v-190h151v-142h-151v-1226q-66 -18 -168.5 -37t-235.5 -19q-123 0 -221 38t-168 111t-107.5 175t-37.5 231zM307 530q0 -186 92.5 -286.5t245.5 -100.5 q78 0 130 7.5t81 15.5v665q-35 29 -100.5 55.5t-143.5 26.5q-82 0 -140 -28.5t-95 -79.5t-53.5 -122t-16.5 -153z" />
<glyph unicode="&#x112;" horiz-adv-x="1177" d="M180 0v1419h867v-170h-668v-422h594v-165h-594v-492h719v-170h-918zM321 1628v147h582v-147h-582z" />
<glyph unicode="&#x113;" horiz-adv-x="1153" d="M109 530q0 141 40.5 247t108.5 175.5t156 104.5t180 35q215 0 329.5 -134.5t114.5 -408.5v-32q0 -19 -2 -36h-729q12 -166 96 -252t263 -86q100 0 168.5 17.5t103.5 34.5l27 -160q-35 -18 -122 -39t-198 -21q-139 0 -240.5 42t-167 116t-97 175t-31.5 222zM311 635h529 q2 129 -64.5 212t-183.5 83q-66 0 -116 -25.5t-85 -66.5t-54.5 -94.5t-25.5 -108.5zM282 1309v147h582v-147h-582z" />
<glyph unicode="&#x114;" horiz-adv-x="1177" d="M180 0v1419h867v-170h-668v-422h594v-165h-594v-492h719v-170h-918zM322 1853h123q2 -23 9 -49.5t23.5 -48t45 -36t71.5 -14.5t72 14.5t45 36t23.5 48t9.5 49.5h123q2 -68 -18.5 -121t-58.5 -89t-88 -55.5t-108 -19.5q-57 0 -107 19.5t-88 55.5t-58.5 89t-18.5 121z" />
<glyph unicode="&#x115;" horiz-adv-x="1153" d="M109 530q0 141 40.5 247t108.5 175.5t156 104.5t180 35q215 0 329.5 -134.5t114.5 -408.5v-32q0 -19 -2 -36h-729q12 -166 96 -252t263 -86q100 0 168.5 17.5t103.5 34.5l27 -160q-35 -18 -122 -39t-198 -21q-139 0 -240.5 42t-167 116t-97 175t-31.5 222zM311 635h529 q2 129 -64.5 212t-183.5 83q-66 0 -116 -25.5t-85 -66.5t-54.5 -94.5t-25.5 -108.5zM309 1534h123q2 -23 9 -49.5t23.5 -48t45 -36t71.5 -14.5t72 14.5t45 36t23.5 48t9.5 49.5h123q2 -68 -18.5 -121t-58.5 -89t-88 -55.5t-108 -19.5q-57 0 -107 19.5t-88 55.5t-58.5 89 t-18.5 121z" />
<glyph unicode="&#x116;" horiz-adv-x="1177" d="M180 0v1419h867v-170h-668v-422h594v-165h-594v-492h719v-170h-918zM489 1701q0 57 36 91t87 34t87 -33.5t36 -91.5q0 -57 -36 -91t-87 -34t-87 34t-36 91z" />
<glyph unicode="&#x117;" horiz-adv-x="1153" d="M109 530q0 141 40.5 247t108.5 175.5t156 104.5t180 35q215 0 329.5 -134.5t114.5 -408.5v-32q0 -19 -2 -36h-729q12 -166 96 -252t263 -86q100 0 168.5 17.5t103.5 34.5l27 -160q-35 -18 -122 -39t-198 -21q-139 0 -240.5 42t-167 116t-97 175t-31.5 222zM311 635h529 q2 129 -64.5 212t-183.5 83q-66 0 -116 -25.5t-85 -66.5t-54.5 -94.5t-25.5 -108.5zM467 1382q0 57 36 91t87 34t87 -33.5t36 -91.5q0 -57 -36 -91t-87 -34t-87 34t-36 91z" />
<glyph unicode="&#x118;" horiz-adv-x="1177" d="M180 0v1419h867v-170h-668v-422h594v-165h-594v-492h719v-166q-18 -10 -49 -30.5t-62 -53.5q-29 -33 -45 -57.5t-16 -52.5q0 -59 82 -60q14 0 37.5 3t46.5 11l14 -124q-23 -10 -58.5 -16.5t-76.5 -6.5q-115 0 -170.5 42t-55.5 114q0 47 26 91t60 81l30 29q13 13 30 26 h-711z" />
<glyph unicode="&#x119;" horiz-adv-x="1153" d="M109 530q0 141 40.5 247t108.5 175.5t156 104.5t180 35q215 0 329.5 -134.5t114.5 -408.5v-32q0 -19 -2 -36h-729q12 -166 96 -252t263 -86q100 0 168.5 17.5t103.5 34.5l27 -160l-70 -53q-35 -27 -68 -62q-35 -35 -50 -60.5t-15 -49.5q0 -35 23.5 -47.5t58.5 -12.5 q25 0 47 5t37 9l14 -124q-25 -12 -63.5 -17.5t-71.5 -5.5q-104 0 -164.5 37t-60.5 119q0 47 33.5 100t97.5 107q-16 -2 -33.5 -3.5t-34.5 -1.5q-139 0 -240.5 42t-167 116t-97 175t-31.5 222zM311 635h529q2 129 -64.5 212t-183.5 83q-66 0 -116 -25.5t-85 -66.5 t-54.5 -94.5t-25.5 -108.5z" />
<glyph unicode="&#x11a;" horiz-adv-x="1177" d="M180 0v1419h867v-170h-668v-422h594v-165h-594v-492h719v-170h-918zM316 1812l79 90l199 -180l199 180l80 -90l-279 -293z" />
<glyph unicode="&#x11b;" horiz-adv-x="1153" d="M109 530q0 141 40.5 247t108.5 175.5t156 104.5t180 35q215 0 329.5 -134.5t114.5 -408.5v-32q0 -19 -2 -36h-729q12 -166 96 -252t263 -86q100 0 168.5 17.5t103.5 34.5l27 -160q-35 -18 -122 -39t-198 -21q-139 0 -240.5 42t-167 116t-97 175t-31.5 222zM311 635h529 q2 129 -64.5 212t-183.5 83q-66 0 -116 -25.5t-85 -66.5t-54.5 -94.5t-25.5 -108.5zM312 1493l79 90l199 -180l199 180l80 -90l-279 -293z" />
<glyph unicode="&#x11c;" horiz-adv-x="1384" d="M123 711q0 178 54 316t146.5 232.5t216.5 143.5t265 49q96 0 171 -12.5t128 -28.5t87 -32.5t46 -24.5l-63 -166q-59 39 -157.5 64.5t-201.5 25.5q-109 0 -198 -39t-151.5 -112.5t-97 -179t-34.5 -236.5q0 -127 29.5 -231.5t90 -179.5t149.5 -116t210 -41q86 0 146.5 9.5 t87.5 17.5v528h198v-663q-25 -8 -71 -18.5t-106 -20.5t-132 -17.5t-145 -7.5q-150 0 -273 49.5t-211 143.5t-136 231.5t-48 315.5zM494 1601l278 293l279 -293l-80 -90l-199 180l-199 -180z" />
<glyph unicode="&#x11d;" horiz-adv-x="1191" d="M109 555q0 117 34.5 214t101 168t163 110.5t217.5 39.5q133 0 232 -19t167 -36v-950q0 -246 -127 -356.5t-385 -110.5q-100 0 -189.5 16.5t-154.5 38.5l35 166q57 -23 140 -40t173 -17q170 0 245 67.5t75 214.5v45q-25 -16 -95.5 -41.5t-165.5 -25.5q-96 0 -181 30.5 t-148.5 95t-100 161t-36.5 229.5zM307 553q0 -92 23.5 -157.5t63.5 -108.5t92.5 -63.5t107.5 -20.5q76 0 139.5 21.5t100.5 49.5v623q-29 8 -77 15.5t-130 7.5q-154 0 -237 -100.5t-83 -266.5zM347 1282l278 293l279 -293l-80 -90l-199 180l-199 -180z" />
<glyph unicode="&#x11e;" horiz-adv-x="1384" d="M123 711q0 178 54 316t146.5 232.5t216.5 143.5t265 49q96 0 171 -12.5t128 -28.5t87 -32.5t46 -24.5l-63 -166q-59 39 -157.5 64.5t-201.5 25.5q-109 0 -198 -39t-151.5 -112.5t-97 -179t-34.5 -236.5q0 -127 29.5 -231.5t90 -179.5t149.5 -116t210 -41q86 0 146.5 9.5 t87.5 17.5v528h198v-663q-25 -8 -71 -18.5t-106 -20.5t-132 -17.5t-145 -7.5q-150 0 -273 49.5t-211 143.5t-136 231.5t-48 315.5zM500 1853h123q2 -23 9 -49.5t23.5 -48t45 -36t71.5 -14.5t72 14.5t45 36t23.5 48t9.5 49.5h123q2 -68 -18.5 -121t-58.5 -89t-88 -55.5 t-108 -19.5q-57 0 -107 19.5t-88 55.5t-58.5 89t-18.5 121z" />
<glyph unicode="&#x11f;" horiz-adv-x="1191" d="M109 555q0 117 34.5 214t101 168t163 110.5t217.5 39.5q133 0 232 -19t167 -36v-950q0 -246 -127 -356.5t-385 -110.5q-100 0 -189.5 16.5t-154.5 38.5l35 166q57 -23 140 -40t173 -17q170 0 245 67.5t75 214.5v45q-25 -16 -95.5 -41.5t-165.5 -25.5q-96 0 -181 30.5 t-148.5 95t-100 161t-36.5 229.5zM307 553q0 -92 23.5 -157.5t63.5 -108.5t92.5 -63.5t107.5 -20.5q76 0 139.5 21.5t100.5 49.5v623q-29 8 -77 15.5t-130 7.5q-154 0 -237 -100.5t-83 -266.5zM352 1534h123q2 -23 9 -49.5t23.5 -48t45 -36t71.5 -14.5t72 14.5t45 36 t23.5 48t9.5 49.5h123q2 -68 -18.5 -121t-58.5 -89t-88 -55.5t-108 -19.5q-57 0 -107 19.5t-88 55.5t-58.5 89t-18.5 121z" />
<glyph unicode="&#x120;" horiz-adv-x="1384" d="M123 711q0 178 54 316t146.5 232.5t216.5 143.5t265 49q96 0 171 -12.5t128 -28.5t87 -32.5t46 -24.5l-63 -166q-59 39 -157.5 64.5t-201.5 25.5q-109 0 -198 -39t-151.5 -112.5t-97 -179t-34.5 -236.5q0 -127 29.5 -231.5t90 -179.5t149.5 -116t210 -41q86 0 146.5 9.5 t87.5 17.5v528h198v-663q-25 -8 -71 -18.5t-106 -20.5t-132 -17.5t-145 -7.5q-150 0 -273 49.5t-211 143.5t-136 231.5t-48 315.5zM649 1701q0 57 36 91t87 34t87 -33.5t36 -91.5q0 -57 -36 -91t-87 -34t-87 34t-36 91z" />
<glyph unicode="&#x121;" horiz-adv-x="1191" d="M109 555q0 117 34.5 214t101 168t163 110.5t217.5 39.5q133 0 232 -19t167 -36v-950q0 -246 -127 -356.5t-385 -110.5q-100 0 -189.5 16.5t-154.5 38.5l35 166q57 -23 140 -40t173 -17q170 0 245 67.5t75 214.5v45q-25 -16 -95.5 -41.5t-165.5 -25.5q-96 0 -181 30.5 t-148.5 95t-100 161t-36.5 229.5zM307 553q0 -92 23.5 -157.5t63.5 -108.5t92.5 -63.5t107.5 -20.5q76 0 139.5 21.5t100.5 49.5v623q-29 8 -77 15.5t-130 7.5q-154 0 -237 -100.5t-83 -266.5zM502 1382q0 57 36 91t87 34t87 -33.5t36 -91.5q0 -57 -36 -91t-87 -34t-87 34 t-36 91z" />
<glyph unicode="&#x122;" horiz-adv-x="1384" d="M123 711q0 178 54 316t146.5 232.5t216.5 143.5t265 49q96 0 171 -12.5t128 -28.5t87 -32.5t46 -24.5l-63 -166q-59 39 -157.5 64.5t-201.5 25.5q-109 0 -198 -39t-151.5 -112.5t-97 -179t-34.5 -236.5q0 -127 29.5 -231.5t90 -179.5t149.5 -116t210 -41q86 0 146.5 9.5 t87.5 17.5v528h198v-663q-25 -8 -71 -18.5t-106 -20.5t-132 -17.5t-145 -7.5q-150 0 -273 49.5t-211 143.5t-136 231.5t-48 315.5zM555 -262q31 0 56.5 4t42 17.5t25.5 40t9 71.5v27h182q2 -10 2 -24v-19q0 -66 -19 -111t-52 -73.5t-77 -42t-93 -13.5q-27 0 -48.5 2t-27.5 6 v115z" />
<glyph unicode="&#x123;" horiz-adv-x="1191" d="M109 555q0 117 34.5 214t101 168t163 110.5t217.5 39.5q133 0 232 -19t167 -36v-950q0 -246 -127 -356.5t-385 -110.5q-100 0 -189.5 16.5t-154.5 38.5l35 166q57 -23 140 -40t173 -17q170 0 245 67.5t75 214.5v45q-25 -16 -95.5 -41.5t-165.5 -25.5q-96 0 -181 30.5 t-148.5 95t-100 161t-36.5 229.5zM307 553q0 -92 23.5 -157.5t63.5 -108.5t92.5 -63.5t107.5 -20.5q76 0 139.5 21.5t100.5 49.5v623q-29 8 -77 15.5t-130 7.5q-154 0 -237 -100.5t-83 -266.5zM530 1271v19q0 74 20.5 128.5t54.5 91t75 58t82 31.5l67 -92q-25 -18 -46 -36.5 t-36.5 -44t-24 -61.5t-8.5 -91v-27h-182q-2 11 -2 24z" />
<glyph unicode="&#x124;" horiz-adv-x="1452" d="M180 0v1419h199v-592h694v592h199v-1419h-199v655h-694v-655h-199zM447 1601l278 293l279 -293l-80 -90l-199 180l-199 -180z" />
<glyph unicode="&#x125;" horiz-adv-x="1177" d="M168 0v1556l190 33v-545q53 20 113.5 31.5t120.5 11.5q127 0 211 -35.5t134 -100t70.5 -154.5t20.5 -199v-598h-190v557q0 98 -13.5 168t-44 113t-82 62.5t-127.5 19.5q-31 0 -63.5 -4.5t-62 -9.5t-53 -11t-34.5 -10v-885h-190zM112 1776l252 194l252 -194l-59 -93 l-193 125l-192 -125z" />
<glyph unicode="&#x126;" horiz-adv-x="1505" d="M43 1071v146h164v202h199v-202h694v202h198v-202h164v-146h-164v-1071h-198v655h-694v-655h-199v1071h-164zM406 827h694v244h-694v-244z" />
<glyph unicode="&#x127;" horiz-adv-x="1177" d="M16 1257v142h152v157l190 33v-190h363v-142h-363v-221q53 20 113.5 31.5t120.5 11.5q127 0 211 -35.5t134 -100t70.5 -155t20.5 -198.5v-590h-190v549q0 98 -13.5 167.5t-44 112.5t-82 62.5t-127.5 19.5q-31 0 -63.5 -4t-62 -9t-53 -11t-34.5 -10v-877h-190v1257h-152z " />
<glyph unicode="&#x128;" horiz-adv-x="559" d="M180 0v1419h199v-1419h-199zM-55 1628q8 25 26.5 57.5t45.5 60t62.5 47t78.5 19.5q41 0 77 -14.5t69 -30.5q35 -16 59.5 -24.5t46.5 -8.5q35 0 64.5 29t46.5 61l98 -49q-10 -25 -27.5 -57.5t-44 -60t-62.5 -47t-79 -19.5q-41 0 -77 14t-68 31q-35 16 -59.5 24.5 t-47.5 8.5q-35 0 -64.5 -29t-45.5 -61z" />
<glyph unicode="&#x129;" horiz-adv-x="526" d="M168 0v1065h190v-1065h-190zM-72 1309q8 25 26.5 57.5t45.5 60t62.5 47t78.5 19.5q41 0 77 -14.5t69 -30.5q35 -16 59.5 -24.5t46.5 -8.5q35 0 64.5 29t46.5 61l98 -49q-10 -25 -27.5 -57.5t-44 -60t-62.5 -47t-79 -19.5q-41 0 -77 14t-68 31q-35 16 -59.5 24.5 t-47.5 8.5q-35 0 -64.5 -29t-45.5 -61z" />
<glyph unicode="&#x12a;" horiz-adv-x="559" d="M180 0v1419h199v-1419h-199zM-11 1628v147h582v-147h-582z" />
<glyph unicode="&#x12b;" horiz-adv-x="526" d="M168 0v1065h190v-1065h-190zM-27 1309v147h582v-147h-582z" />
<glyph unicode="&#x12c;" horiz-adv-x="559" d="M180 0v1419h199v-1419h-199zM8 1853h123q2 -23 9 -49.5t23.5 -48t45 -36t71.5 -14.5t72 14.5t45 36t23.5 48t9.5 49.5h123q2 -68 -18.5 -121t-58.5 -89t-88 -55.5t-108 -19.5q-57 0 -107 19.5t-88 55.5t-58.5 89t-18.5 121z" />
<glyph unicode="&#x12d;" horiz-adv-x="526" d="M168 0v1065h190v-1065h-190zM-8 1534h123q2 -23 9 -49.5t23.5 -48t45 -36t71.5 -14.5t72 14.5t45 36t23.5 48t9.5 49.5h123q2 -68 -18.5 -121t-58.5 -89t-88 -55.5t-108 -19.5q-57 0 -107 19.5t-88 55.5t-58.5 89t-18.5 121z" />
<glyph unicode="&#x12e;" horiz-adv-x="559" d="M39 -227q0 47 26.5 91t61.5 81l30 29q13 13 23 22v1423h199v-1419l-46 -35q-24 -18 -48 -45q-29 -33 -47.5 -57.5t-18.5 -52.5q0 -59 82 -60q14 0 37.5 3t46.5 11l14 -124q-49 -23 -135 -23q-117 0 -171 42t-54 114z" />
<glyph unicode="&#x12f;" horiz-adv-x="526" d="M23 -227q0 47 26.5 90t61.5 82q16 18 30.5 31.5t26.5 23.5v1065h190v-1065q-49 -37 -90 -80q-29 -33 -47 -57.5t-18 -52.5q0 -59 82 -60q14 0 37.5 3t46.5 11l14 -124q-49 -23 -135 -23q-117 0 -171 42t-54 114zM139 1382q0 57 36 91t87 34t87 -33.5t36 -91.5 q0 -57 -36 -91t-87 -34t-87 34t-36 91z" />
<glyph unicode="&#x130;" horiz-adv-x="559" d="M180 0v1419h199v-1419h-199zM157 1701q0 57 36 91t87 34t87 -33.5t36 -91.5q0 -57 -36 -91t-87 -34t-87 34t-36 91z" />
<glyph unicode="&#x131;" horiz-adv-x="526" d="M168 0v1065h190v-1065h-190z" />
<glyph unicode="&#x132;" horiz-adv-x="1581" d="M180 0v1419h199v-1419h-199zM579 84l78 158q43 -31 112 -65t171 -34q147 0 215 75t68 257v944h198v-962q0 -102 -21.5 -190.5t-75.5 -155t-145.5 -104.5t-228.5 -38q-70 0 -128 11.5t-105 29t-82.5 37t-55.5 37.5z" />
<glyph unicode="&#x133;" horiz-adv-x="1052" d="M139 1382q0 57 36 91t87 34t87 -33.5t36 -91.5q0 -57 -36 -91t-87 -34t-87 34t-36 91zM168 0v1065h190v-1065h-190zM391 -360l24 155q20 -6 47 -10t50 -4q98 0 140 60.5t42 176.5v1047h190v-1045q0 -205 -93 -304t-271 -99q-25 0 -63.5 6.5t-65.5 16.5zM665 1382 q0 57 36 91t87 34t87 -33.5t36 -91.5q0 -57 -36 -91t-87 -34t-87 34t-36 91z" />
<glyph unicode="&#x134;" horiz-adv-x="1032" d="M20 84l78 158q43 -31 112 -65t171 -34q147 0 215 75t68 257v944h198v-962q0 -102 -21.5 -190.5t-75.5 -155t-145.5 -104.5t-228.5 -38q-70 0 -128 11.5t-105 29t-82.5 37t-55.5 37.5zM484 1601l278 293l279 -293l-80 -90l-199 180l-199 -180z" />
<glyph unicode="&#x135;" horiz-adv-x="526" d="M-135 -356l24 155q20 -6 47 -10t50 -4q98 0 140 60.5t42 177.5v1042h190v-1040q0 -205 -93 -304.5t-271 -99.5q-25 0 -63.5 6.5t-65.5 16.5zM-14 1282l278 293l279 -293l-80 -90l-199 180l-199 -180z" />
<glyph unicode="&#x136;" horiz-adv-x="1296" d="M180 0v1419h199v-626l158 152l170 171l158 165q75 79 126 138h240l-144 -154l-166 -174l-173 -176l-162 -159q88 -61 186 -151.5t192.5 -193t177.5 -209t138 -202.5h-233q-61 96 -141.5 193.5t-169.5 186.5t-180 165t-177 129v-674h-199zM463 -262q31 0 56.5 4t42 17.5 t25.5 40t9 71.5v27h182q2 -10 2 -24v-19q0 -66 -19 -111t-52 -73.5t-77 -42t-93 -13.5q-27 0 -48.5 2t-27.5 6v115z" />
<glyph unicode="&#x137;" horiz-adv-x="1077" d="M168 0v1556l190 33v-971l109 109l117 121l108 118l88 99h224l-103 -113l-115 -124l-119 -125l-114 -117q61 -47 130 -117t135.5 -150.5t126 -163.5t99.5 -155h-223q-43 72 -99 146.5t-117.5 143t-125 126t-121.5 96.5v-512h-190zM348 -262q31 0 56.5 4t42 17.5t25.5 40 t9 71.5v27h182q2 -10 2 -24v-19q0 -66 -19 -111t-52 -73.5t-77 -42t-93 -13.5q-27 0 -48.5 2t-27.5 6v115z" />
<glyph unicode="&#x138;" horiz-adv-x="1107" d="M168 0v1065h190v-457l113 110l128 127l120 123l90 97h221l-105 -112l-125 -128l-128 -130l-115 -115q63 -45 137 -114t144.5 -148.5t132 -162.5t104.5 -155h-225q-45 70 -105.5 142.5t-126 140t-133 125t-127.5 96.5v-504h-190z" />
<glyph unicode="&#x139;" horiz-adv-x="1071" d="M180 0v1419h199v-1247h655v-172h-854zM192 1593l262 315l123 -121l-289 -280z" />
<glyph unicode="&#x13a;" horiz-adv-x="567" d="M164 279v1277l190 33v-1280q0 -47 8.5 -77.5t27 -49t49 -28t75.5 -15.5l-27 -159q-176 4 -249.5 75.5t-73.5 223.5zM125 1790l329 160l58 -150l-344 -123z" />
<glyph unicode="&#x13b;" horiz-adv-x="1071" d="M180 0v1419h199v-1247h655v-172h-854zM389 -262q31 0 56.5 4t42 17.5t25.5 40t9 71.5v27h182q2 -10 2 -24v-19q0 -66 -19 -111t-52 -73.5t-77 -42t-93 -13.5q-27 0 -48.5 2t-27.5 6v115z" />
<glyph unicode="&#x13c;" horiz-adv-x="567" d="M164 279v1277l190 33v-1280q0 -47 8.5 -77.5t27 -49t49 -28t75.5 -15.5l-27 -159q-176 4 -249.5 75.5t-73.5 223.5zM84 -262q31 0 56.5 4t42 17.5t25.5 40t9 71.5v27h182q2 -10 2 -24v-19q0 -66 -19 -111t-52 -73.5t-77 -42t-93 -13.5q-27 0 -48.5 2t-27.5 6v115z" />
<glyph unicode="&#x13d;" horiz-adv-x="1071" d="M180 0v1419h199v-1247h655v-172h-854zM563 965v456h183l-56 -456h-127z" />
<glyph unicode="&#x13e;" horiz-adv-x="589" d="M164 279v1277l190 33v-1280q0 -47 8.5 -77.5t27 -49t49 -28t75.5 -15.5l-27 -159q-176 4 -249.5 75.5t-73.5 223.5zM497 1133v456h183l-56 -456h-127z" />
<glyph unicode="&#x13f;" horiz-adv-x="1071" d="M180 0v1419h199v-1247h655v-172h-854zM690 743q0 57 36 91t87 34t87 -33.5t36 -91.5q0 -57 -36 -91t-87 -34t-87 34t-36 91z" />
<glyph unicode="&#x140;" horiz-adv-x="763" d="M164 279v1277l190 33v-1280q0 -47 8.5 -77.5t27 -49t49 -28t75.5 -15.5l-27 -159q-176 4 -249.5 75.5t-73.5 223.5zM518 743q0 57 36 91t87 34t87 -33.5t36 -91.5q0 -57 -36 -91t-87 -34t-87 34t-36 91z" />
<glyph unicode="&#x141;" horiz-adv-x="1107" d="M0 645l217 111v663h199v-561l237 123l66 -135l-303 -158v-516h655v-172h-854v586l-149 -76z" />
<glyph unicode="&#x142;" horiz-adv-x="595" d="M10 764l183 92v700l190 33v-635l149 78l64 -127l-213 -110v-486q0 -47 8 -77.5t26.5 -49t49.5 -28t76 -15.5l-27 -159q-176 4 -249.5 75.5t-73.5 223.5v417l-117 -59z" />
<glyph unicode="&#x143;" horiz-adv-x="1499" d="M180 0v1419h158q96 -102 206 -238l217 -281l203 -284q95 -139 160 -247v1050h195v-1419h-166l-103 170l-126 196l-141 205l-144 202l-139 183l-125 152v-1108h-195zM612 1593l262 315l123 -121l-289 -280z" />
<glyph unicode="&#x144;" d="M168 0v1034q66 16 174.5 34.5t249.5 18.5q127 0 211 -35.5t134 -100t70.5 -154.5t20.5 -199v-598h-190v557q0 98 -13.5 168t-44 113t-82 62.5t-127.5 19.5q-31 0 -63.5 -2.5t-62 -5.5t-53 -7l-34.5 -6v-899h-190zM461 1274l262 315l123 -121l-289 -280z" />
<glyph unicode="&#x145;" horiz-adv-x="1499" d="M180 0v1419h158q96 -102 206 -238l217 -281l203 -284q95 -139 160 -247v1050h195v-1419h-166l-103 170l-126 196l-141 205l-144 202l-139 183l-125 152v-1108h-195zM532 -262q31 0 56.5 4t42 17.5t25.5 40t9 71.5v27h182q2 -10 2 -24v-19q0 -66 -19 -111t-52 -73.5 t-77 -42t-93 -13.5q-27 0 -48.5 2t-27.5 6v115z" />
<glyph unicode="&#x146;" d="M168 0v1034q66 16 174.5 34.5t249.5 18.5q127 0 211 -35.5t134 -100t70.5 -154.5t20.5 -199v-598h-190v557q0 98 -13.5 168t-44 113t-82 62.5t-127.5 19.5q-31 0 -63.5 -2.5t-62 -5.5t-53 -7l-34.5 -6v-899h-190zM381 -262q31 0 56.5 4t42 17.5t25.5 40t9 71.5v27h182 q2 -10 2 -24v-19q0 -66 -19 -111t-52 -73.5t-77 -42t-93 -13.5q-27 0 -48.5 2t-27.5 6v115z" />
<glyph unicode="&#x147;" horiz-adv-x="1499" d="M180 0v1419h158q96 -102 206 -238l217 -281l203 -284q95 -139 160 -247v1050h195v-1419h-166l-103 170l-126 196l-141 205l-144 202l-139 183l-125 152v-1108h-195zM471 1812l79 90l199 -180l199 180l80 -90l-279 -293z" />
<glyph unicode="&#x148;" d="M168 0v1034q66 16 174.5 34.5t249.5 18.5q127 0 211 -35.5t134 -100t70.5 -154.5t20.5 -199v-598h-190v557q0 98 -13.5 168t-44 113t-82 62.5t-127.5 19.5q-31 0 -63.5 -2.5t-62 -5.5t-53 -7l-34.5 -6v-899h-190zM320 1493l79 90l199 -180l199 180l80 -90l-279 -293z" />
<glyph unicode="&#x149;" d="M168 0v1034q66 16 174.5 34.5t249.5 18.5q127 0 211 -35.5t134 -100t70.5 -154.5t20.5 -199v-598h-190v557q0 98 -13.5 168t-44 113t-82 62.5t-127.5 19.5q-31 0 -63.5 -2.5t-62 -5.5t-53 -7l-34.5 -6v-899h-190zM19 1206q39 78 56 153t17 152q0 20 -1 43t-3 35h197v-38 q0 -15 -2 -35q-8 -104 -43 -191.5t-84 -165.5z" />
<glyph unicode="&#x14a;" horiz-adv-x="1499" d="M180 0v1419h158q96 -102 206 -238l217 -281l203 -284q95 -139 160 -247v1050h195v-1419q0 -94 -12.5 -166t-45 -120t-92 -72.5t-151.5 -24.5q-29 0 -67 5t-60 11l18 150q16 -6 44 -8t44 -2q76 0 101.5 50t25.5 142v84l-167 262l-197 291l-203 280q-100 134 -182 226 v-1108h-195z" />
<glyph unicode="&#x14b;" d="M168 0v1034q66 16 174.5 34.5t249.5 18.5q127 0 211 -35.5t134 -100t70.5 -154.5t20.5 -199v-598q0 -94 -13.5 -166t-47 -120t-93 -72.5t-151.5 -24.5q-29 0 -67 5t-60 11l18 150q16 -6 44 -8t44 -2q76 0 106 50t30 142v592q0 98 -13.5 168t-44 113t-82 62.5t-127.5 19.5 q-31 0 -63.5 -2.5t-62 -5.5t-53 -7l-34.5 -6v-899h-190z" />
<glyph unicode="&#x14c;" horiz-adv-x="1601" d="M123 711q0 182 54 321t147.5 232.5t217.5 140.5t263 47q137 0 259 -47t214 -140.5t146.5 -232.5t54.5 -321t-54.5 -321.5t-146.5 -233t-214 -140.5t-259 -47q-139 0 -263 47t-217.5 140.5t-147.5 233t-54 321.5zM332 711q0 -129 32.5 -234.5t93 -179.5t147.5 -114 t196 -40t194.5 40t146 114t93.5 179.5t33 234.5t-33 234.5t-93.5 179t-146.5 113.5t-194 40q-109 0 -196 -40t-147.5 -113.5t-93 -179t-32.5 -234.5zM510 1628v147h582v-147h-582z" />
<glyph unicode="&#x14d;" horiz-adv-x="1216" d="M109 532q0 125 36.5 228.5t103 177.5t159 114t200.5 40q109 0 201 -40t158.5 -114t103.5 -177.5t37 -228.5q0 -127 -37 -229t-103.5 -176t-158.5 -114t-201 -40t-201 40t-158.5 114t-103 176t-36.5 229zM307 532q0 -180 81 -285.5t220 -105.5t220 105.5t81 285.5 t-80.5 286t-220.5 106q-139 0 -220 -106t-81 -286zM317 1309v147h582v-147h-582z" />
<glyph unicode="&#x14e;" horiz-adv-x="1601" d="M123 711q0 182 54 321t147.5 232.5t217.5 140.5t263 47q137 0 259 -47t214 -140.5t146.5 -232.5t54.5 -321t-54.5 -321.5t-146.5 -233t-214 -140.5t-259 -47q-139 0 -263 47t-217.5 140.5t-147.5 233t-54 321.5zM332 711q0 -129 32.5 -234.5t93 -179.5t147.5 -114 t196 -40t194.5 40t146 114t93.5 179.5t33 234.5t-33 234.5t-93.5 179t-146.5 113.5t-194 40q-109 0 -196 -40t-147.5 -113.5t-93 -179t-32.5 -234.5zM529 1853h123q2 -23 9 -49.5t23.5 -48t45 -36t71.5 -14.5t72 14.5t45 36t23.5 48t9.5 49.5h123q2 -68 -18.5 -121 t-58.5 -89t-88 -55.5t-108 -19.5q-57 0 -107 19.5t-88 55.5t-58.5 89t-18.5 121z" />
<glyph unicode="&#x14f;" horiz-adv-x="1216" d="M109 532q0 125 36.5 228.5t103 177.5t159 114t200.5 40q109 0 201 -40t158.5 -114t103.5 -177.5t37 -228.5q0 -127 -37 -229t-103.5 -176t-158.5 -114t-201 -40t-201 40t-158.5 114t-103 176t-36.5 229zM307 532q0 -180 81 -285.5t220 -105.5t220 105.5t81 285.5 t-80.5 286t-220.5 106q-139 0 -220 -106t-81 -286zM336 1534h123q2 -23 9 -49.5t23.5 -48t45 -36t71.5 -14.5t72 14.5t45 36t23.5 48t9.5 49.5h123q2 -68 -18.5 -121t-58.5 -89t-88 -55.5t-108 -19.5q-57 0 -107 19.5t-88 55.5t-58.5 89t-18.5 121z" />
<glyph unicode="&#x150;" horiz-adv-x="1601" d="M123 711q0 182 54 321t147.5 232.5t217.5 140.5t263 47q137 0 259 -47t214 -140.5t146.5 -232.5t54.5 -321t-54.5 -321.5t-146.5 -233t-214 -140.5t-259 -47q-139 0 -263 47t-217.5 140.5t-147.5 233t-54 321.5zM332 711q0 -129 32.5 -234.5t93 -179.5t147.5 -114 t196 -40t194.5 40t146 114t93.5 179.5t33 234.5t-33 234.5t-93.5 179t-146.5 113.5t-194 40q-109 0 -196 -40t-147.5 -113.5t-93 -179t-32.5 -234.5zM543 1581l235 327l115 -114l-252 -287zM881 1581l235 327l115 -114l-252 -287z" />
<glyph unicode="&#x151;" horiz-adv-x="1216" d="M109 532q0 125 36.5 228.5t103 177.5t159 114t200.5 40q109 0 201 -40t158.5 -114t103.5 -177.5t37 -228.5q0 -127 -37 -229t-103.5 -176t-158.5 -114t-201 -40t-201 40t-158.5 114t-103 176t-36.5 229zM307 532q0 -180 81 -285.5t220 -105.5t220 105.5t81 285.5 t-80.5 286t-220.5 106q-139 0 -220 -106t-81 -286zM350 1262l235 327l115 -114l-252 -287zM688 1262l235 327l115 -114l-252 -287z" />
<glyph unicode="&#x152;" horiz-adv-x="2041" d="M123 711q0 182 59.5 317t163 225t244.5 135.5t307 45.5q47 0 104.5 -4.5t108.5 -10.5h801v-166h-637v-428h563v-161h-563v-498h688v-166h-852q-51 -6 -109.5 -10t-105.5 -4q-166 0 -307.5 45t-244.5 135t-161.5 226.5t-58.5 318.5zM334 711q0 -131 39 -233.5 t111.5 -173.5t177 -108.5t233.5 -37.5q47 0 81 1t56 3q25 2 43 6v1083q-45 6 -90 8.5t-90 2.5q-129 0 -233.5 -38t-177 -109t-111.5 -173t-39 -231z" />
<glyph unicode="&#x153;" horiz-adv-x="1947" d="M109 532q0 125 36.5 228.5t103 177.5t159 114t200.5 40q129 0 230.5 -60.5t165.5 -165.5q68 115 171 170.5t214 55.5q213 0 328.5 -135.5t115.5 -407.5q0 -16 -1 -27.5t-1 -21.5v-19h-729q12 -164 97 -251t261 -87q100 0 169 17.5t104 34.5l26 -160q-35 -18 -122 -39 t-197 -21q-162 0 -269.5 59.5t-166.5 164.5q-66 -111 -166.5 -168.5t-229.5 -57.5q-109 0 -201 40t-158.5 114t-103 176t-36.5 229zM307 532q0 -180 81 -285.5t220 -105.5t220 105.5t81 285.5t-80.5 286t-220.5 106q-139 0 -220 -106t-81 -286zM1106 635h528 q2 129 -64.5 212t-183.5 83q-66 0 -115.5 -25.5t-83.5 -66.5t-54.5 -94.5t-26.5 -108.5z" />
<glyph unicode="&#x154;" horiz-adv-x="1296" d="M180 0v1399q84 20 187.5 27.5t189.5 7.5q299 0 455.5 -113t156.5 -336q0 -141 -74.5 -241.5t-220.5 -149.5l83 -108q50 -67 103.5 -147.5t106 -168.5t88.5 -170h-217q-41 78 -89 158t-97 152.5t-97 135.5l-87 111q-27 -2 -55 -2h-56h-178v-555h-199zM379 719h141 q102 0 184 10t138.5 39t87.5 81t31 138q0 80 -31 133.5t-83 84t-123 43t-151 12.5q-127 0 -194 -7v-534zM469 1593l262 315l123 -121l-289 -280z" />
<glyph unicode="&#x155;" horiz-adv-x="798" d="M168 0v1020q68 25 168 46t225 21q25 0 56.5 -3t62.5 -8t56.5 -10t37.5 -9l-33 -166q-23 8 -75 19.5t-134 11.5q-53 0 -105 -11.5l-69 -15.5v-895h-190zM338 1274l262 315l123 -121l-289 -280z" />
<glyph unicode="&#x156;" horiz-adv-x="1296" d="M180 0v1399q84 20 187.5 27.5t189.5 7.5q299 0 455.5 -113t156.5 -336q0 -141 -74.5 -241.5t-220.5 -149.5l83 -108q50 -67 103.5 -147.5t106 -168.5t88.5 -170h-217q-41 78 -89 158t-97 152.5t-97 135.5l-87 111q-27 -2 -55 -2h-56h-178v-555h-199zM379 719h141 q102 0 184 10t138.5 39t87.5 81t31 138q0 80 -31 133.5t-83 84t-123 43t-151 12.5q-127 0 -194 -7v-534zM457 -262q31 0 56.5 4t42 17.5t25.5 40t9 71.5v27h182q2 -10 2 -24v-19q0 -66 -19 -111t-52 -73.5t-77 -42t-93 -13.5q-27 0 -48.5 2t-27.5 6v115z" />
<glyph unicode="&#x157;" horiz-adv-x="798" d="M168 0v1020q68 25 168 46t225 21q25 0 56.5 -3t62.5 -8t56.5 -10t37.5 -9l-33 -166q-23 8 -75 19.5t-134 11.5q-53 0 -105 -11.5l-69 -15.5v-895h-190zM41 -262q31 0 56.5 4t42 17.5t25.5 40t9 71.5v27h182q2 -10 2 -24v-19q0 -66 -19 -111t-52 -73.5t-77 -42t-93 -13.5 q-27 0 -48.5 2t-27.5 6v115z" />
<glyph unicode="&#x158;" horiz-adv-x="1296" d="M180 0v1399q84 20 187.5 27.5t189.5 7.5q299 0 455.5 -113t156.5 -336q0 -141 -74.5 -241.5t-220.5 -149.5l83 -108q50 -67 103.5 -147.5t106 -168.5t88.5 -170h-217q-41 78 -89 158t-97 152.5t-97 135.5l-87 111q-27 -2 -55 -2h-56h-178v-555h-199zM379 719h141 q102 0 184 10t138.5 39t87.5 81t31 138q0 80 -31 133.5t-83 84t-123 43t-151 12.5q-127 0 -194 -7v-534zM328 1812l79 90l199 -180l199 180l80 -90l-279 -293z" />
<glyph unicode="&#x159;" horiz-adv-x="798" d="M168 0v1020q68 25 168 46t225 21q25 0 56.5 -3t62.5 -8t56.5 -10t37.5 -9l-33 -166q-23 8 -75 19.5t-134 11.5q-53 0 -105 -11.5l-69 -15.5v-895h-190zM195 1493l79 90l199 -180l199 180l80 -90l-279 -293z" />
<glyph unicode="&#x15a;" horiz-adv-x="1097" d="M72 70l59 163q47 -27 143.5 -59.5t235.5 -32.5q311 0 311 213q0 66 -27.5 112t-74.5 80t-107.5 58.5t-128.5 48.5q-78 27 -147.5 61t-120.5 80t-81 109.5t-30 153.5q0 186 127 290.5t351 104.5q129 0 234.5 -27.5t154.5 -60.5l-64 -162q-43 27 -128 52.5t-197 25.5 q-57 0 -106.5 -12.5t-86.5 -37t-58.5 -62.5t-21.5 -89q0 -57 22.5 -96t63.5 -68.5t95.5 -54t119.5 -49.5q92 -37 169 -74t133.5 -88t87 -121.5t30.5 -171.5q0 -186 -136 -286.5t-384 -100.5q-84 0 -154.5 11.5t-126 27t-95 33t-62.5 29.5zM432 1593l262 315l123 -121 l-289 -280z" />
<glyph unicode="&#x15b;" horiz-adv-x="921" d="M86 35l35 164l104.5 -37t190.5 -25q117 0 173 31t56 98q0 70 -55 111t-182 92l-118 50.5t-97.5 60t-65.5 84t-25 120.5q0 141 104.5 224.5t285.5 83.5q45 0 90 -5.5t84 -12.5t68.5 -15t45.5 -15l-35 -163q-31 16 -96 33.5t-157 17.5q-80 0 -139.5 -32t-59.5 -99 q0 -35 13 -61.5t41 -48t69 -40t98 -39.5q76 -29 135.5 -56.5t101.5 -64t64.5 -89t22.5 -128.5q0 -147 -110 -223t-312 -76q-141 0 -221 24t-109 36zM332 1274l262 315l123 -121l-289 -280z" />
<glyph unicode="&#x15c;" horiz-adv-x="1097" d="M72 70l59 163q47 -27 143.5 -59.5t235.5 -32.5q311 0 311 213q0 66 -27.5 112t-74.5 80t-107.5 58.5t-128.5 48.5q-78 27 -147.5 61t-120.5 80t-81 109.5t-30 153.5q0 186 127 290.5t351 104.5q129 0 234.5 -27.5t154.5 -60.5l-64 -162q-43 27 -128 52.5t-197 25.5 q-57 0 -106.5 -12.5t-86.5 -37t-58.5 -62.5t-21.5 -89q0 -57 22.5 -96t63.5 -68.5t95.5 -54t119.5 -49.5q92 -37 169 -74t133.5 -88t87 -121.5t30.5 -171.5q0 -186 -136 -286.5t-384 -100.5q-84 0 -154.5 11.5t-126 27t-95 33t-62.5 29.5zM291 1601l278 293l279 -293 l-80 -90l-199 180l-199 -180z" />
<glyph unicode="&#x15d;" horiz-adv-x="921" d="M86 35l35 164l104.5 -37t190.5 -25q117 0 173 31t56 98q0 70 -55 111t-182 92l-118 50.5t-97.5 60t-65.5 84t-25 120.5q0 141 104.5 224.5t285.5 83.5q45 0 90 -5.5t84 -12.5t68.5 -15t45.5 -15l-35 -163q-31 16 -96 33.5t-157 17.5q-80 0 -139.5 -32t-59.5 -99 q0 -35 13 -61.5t41 -48t69 -40t98 -39.5q76 -29 135.5 -56.5t101.5 -64t64.5 -89t22.5 -128.5q0 -147 -110 -223t-312 -76q-141 0 -221 24t-109 36zM191 1282l278 293l279 -293l-80 -90l-199 180l-199 -180z" />
<glyph unicode="&#x15e;" horiz-adv-x="1097" d="M72 70l59 163q47 -27 143.5 -59.5t235.5 -32.5q311 0 311 213q0 66 -27.5 112t-74.5 80t-107.5 58.5t-128.5 48.5q-78 27 -147.5 61t-120.5 80t-81 109.5t-30 153.5q0 186 127 290.5t351 104.5q129 0 234.5 -27.5t154.5 -60.5l-64 -162q-43 27 -128 52.5t-197 25.5 q-57 0 -106.5 -12.5t-86.5 -37t-58.5 -62.5t-21.5 -89q0 -57 22.5 -96t63.5 -68.5t95.5 -54t119.5 -49.5q92 -37 169 -74t133.5 -88t87 -121.5t30.5 -171.5q0 -166 -109.5 -264t-314.5 -119l-22 -49q59 -29 85.5 -62.5t26.5 -99.5q0 -23 -10 -49t-34.5 -48.5t-65.5 -37 t-101 -14.5q-53 0 -97 8t-71 19l23 116q25 -8 52.5 -14t62.5 -6q74 0 73 47q0 23 -22.5 38t-63.5 32l-14 6q8 23 20.5 52.5t26.5 57.5q-78 2 -142.5 13.5t-115.5 27t-88 32t-57 28.5z" />
<glyph unicode="&#x15f;" horiz-adv-x="921" d="M86 35l35 164l104.5 -37t190.5 -25q117 0 173 31t56 98q0 70 -55 111t-182 92l-118 50.5t-97.5 60t-65.5 84t-25 120.5q0 141 104.5 224.5t285.5 83.5q45 0 90 -5.5t84 -12.5t68.5 -15t45.5 -15l-35 -163q-31 16 -96 33.5t-157 17.5q-80 0 -139.5 -32t-59.5 -99 q0 -37 13 -62.5t41 -46t69 -40t98 -40.5q74 -29 133.5 -56.5t102.5 -64t65.5 -89t22.5 -128.5q0 -127 -82 -200.5t-236 -91.5l-15 -31q-7 -14 -11 -27q59 -29 85.5 -62.5t26.5 -99.5q0 -23 -10 -49t-34.5 -48.5t-65.5 -37t-101 -14.5q-53 0 -97 8t-71 19l23 116 q25 -8 52.5 -14t62.5 -6q74 0 73 47q0 23 -22.5 38t-63.5 32l-14 6q8 25 21.5 56.5t27.5 59.5q-129 4 -201.5 26t-99.5 34z" />
<glyph unicode="&#x160;" horiz-adv-x="1097" d="M72 70l59 163q47 -27 143.5 -59.5t235.5 -32.5q311 0 311 213q0 66 -27.5 112t-74.5 80t-107.5 58.5t-128.5 48.5q-78 27 -147.5 61t-120.5 80t-81 109.5t-30 153.5q0 186 127 290.5t351 104.5q129 0 234.5 -27.5t154.5 -60.5l-64 -162q-43 27 -128 52.5t-197 25.5 q-57 0 -106.5 -12.5t-86.5 -37t-58.5 -62.5t-21.5 -89q0 -57 22.5 -96t63.5 -68.5t95.5 -54t119.5 -49.5q92 -37 169 -74t133.5 -88t87 -121.5t30.5 -171.5q0 -186 -136 -286.5t-384 -100.5q-84 0 -154.5 11.5t-126 27t-95 33t-62.5 29.5zM291 1812l79 90l199 -180l199 180 l80 -90l-279 -293z" />
<glyph unicode="&#x161;" horiz-adv-x="921" d="M86 35l35 164l104.5 -37t190.5 -25q117 0 173 31t56 98q0 70 -55 111t-182 92l-118 50.5t-97.5 60t-65.5 84t-25 120.5q0 141 104.5 224.5t285.5 83.5q45 0 90 -5.5t84 -12.5t68.5 -15t45.5 -15l-35 -163q-31 16 -96 33.5t-157 17.5q-80 0 -139.5 -32t-59.5 -99 q0 -35 13 -61.5t41 -48t69 -40t98 -39.5q76 -29 135.5 -56.5t101.5 -64t64.5 -89t22.5 -128.5q0 -147 -110 -223t-312 -76q-141 0 -221 24t-109 36zM183 1493l79 90l199 -180l199 180l80 -90l-279 -293z" />
<glyph unicode="&#x162;" horiz-adv-x="1165" d="M37 1247v172h1091v-172h-446v-1247h-39l-20 -40q-10 -19 -17 -36q59 -29 86 -62.5t27 -99.5q0 -23 -10.5 -49t-35 -48.5t-65.5 -37t-100 -14.5q-53 0 -97 8t-71 19l22 116q25 -8 52.5 -14t62.5 -6q74 0 74 47q0 23 -22.5 38t-63.5 32l-14 6q8 29 26.5 69.5t34.5 71.5h-29 v1247h-446z" />
<glyph unicode="&#x163;" horiz-adv-x="831" d="M156 412v950l190 33v-330h404v-160h-404v-491q0 -80 12.5 -132.5t37 -82t61.5 -42t86 -12.5q86 0 138 19.5t73 28.5l37 -158q-27 -12 -85.5 -31.5t-136.5 -23.5l-15 -30q-7 -13 -11 -26q59 -29 85.5 -62.5t26.5 -99.5q0 -23 -10 -49t-34.5 -48.5t-65.5 -37t-101 -14.5 q-53 0 -97 8t-71 19l23 116q25 -8 52.5 -14t62.5 -6q74 0 73 47q0 23 -22.5 38t-63.5 32l-14 6q8 27 21.5 60.5t29.5 64.5q-82 10 -136 42.5t-87 86t-46 128.5t-13 171z" />
<glyph unicode="&#x164;" horiz-adv-x="1165" d="M37 1247v172h1091v-172h-446v-1247h-199v1247h-446zM304 1812l79 90l199 -180l199 180l80 -90l-279 -293z" />
<glyph unicode="&#x165;" horiz-adv-x="831" d="M156 412v950l190 33v-330h404v-160h-404v-491q0 -80 12.5 -132.5t37 -82t61.5 -42t86 -12.5q86 0 138 19.5t73 28.5l37 -158q-29 -14 -101 -36t-164 -22q-109 0 -179.5 28t-113.5 83t-60 136.5t-17 187.5zM490 1192v397h182l-55 -397h-127z" />
<glyph unicode="&#x166;" horiz-adv-x="1165" d="M37 1247v172h1091v-172h-446v-442h266v-154h-266v-651h-199v651h-266v154h266v442h-446z" />
<glyph unicode="&#x167;" horiz-adv-x="831" d="M156 412v950l190 33v-330h404v-160h-404v-278h404v-144h-404v-69q0 -80 12.5 -132.5t37 -82t61.5 -42t86 -12.5q86 0 138 19.5t73 28.5l37 -158q-29 -14 -101 -36t-164 -22q-109 0 -179.5 28t-113.5 83t-60 136.5t-17 187.5z" />
<glyph unicode="&#x168;" horiz-adv-x="1417" d="M170 528v891h199v-868q0 -213 94 -309.5t246 -96.5q76 0 138 24t107 73t70 125.5t25 183.5v868h198v-891q0 -119 -31.5 -221t-98 -177t-168 -118t-240.5 -43t-241.5 43t-168.5 118t-97.5 177t-31.5 221zM373 1628q8 25 26.5 57.5t45.5 60t62.5 47t78.5 19.5 q41 0 77 -14.5t69 -30.5q35 -16 59.5 -24.5t46.5 -8.5q35 0 64.5 29t46.5 61l98 -49q-10 -25 -27.5 -57.5t-44 -60t-62.5 -47t-79 -19.5q-41 0 -77 14t-68 31q-35 16 -59.5 24.5t-47.5 8.5q-35 0 -64.5 -29t-45.5 -61z" />
<glyph unicode="&#x169;" d="M156 467v598h190v-557q0 -195 61.5 -279t206.5 -84q31 0 64 2.5t61.5 5.5t52 6t33.5 7v899h191v-1034q-66 -16 -173.5 -35t-248.5 -19q-123 0 -207 36t-135 101.5t-73.5 154.5t-22.5 198zM254 1309q8 25 26.5 57.5t45.5 60t62.5 47t78.5 19.5q41 0 77 -14.5t69 -30.5 q35 -16 59.5 -24.5t46.5 -8.5q35 0 64.5 29t46.5 61l98 -49q-10 -25 -27.5 -57.5t-44 -60t-62.5 -47t-79 -19.5q-41 0 -77 14t-68 31q-35 16 -59.5 24.5t-47.5 8.5q-35 0 -64.5 -29t-45.5 -61z" />
<glyph unicode="&#x16a;" horiz-adv-x="1417" d="M170 528v891h199v-868q0 -213 94 -309.5t246 -96.5q76 0 138 24t107 73t70 125.5t25 183.5v868h198v-891q0 -119 -31.5 -221t-98 -177t-168 -118t-240.5 -43t-241.5 43t-168.5 118t-97.5 177t-31.5 221zM417 1628v147h582v-147h-582z" />
<glyph unicode="&#x16b;" d="M156 467v598h190v-557q0 -195 61.5 -279t206.5 -84q31 0 64 2.5t61.5 5.5t52 6t33.5 7v899h191v-1034q-66 -16 -173.5 -35t-248.5 -19q-123 0 -207 36t-135 101.5t-73.5 154.5t-22.5 198zM295 1309v147h582v-147h-582z" />
<glyph unicode="&#x16c;" horiz-adv-x="1417" d="M170 528v891h199v-868q0 -213 94 -309.5t246 -96.5q76 0 138 24t107 73t70 125.5t25 183.5v868h198v-891q0 -119 -31.5 -221t-98 -177t-168 -118t-240.5 -43t-241.5 43t-168.5 118t-97.5 177t-31.5 221zM436 1853h123q2 -23 9 -49.5t23.5 -48t45 -36t71.5 -14.5t72 14.5 t45 36t23.5 48t9.5 49.5h123q2 -68 -18.5 -121t-58.5 -89t-88 -55.5t-108 -19.5q-57 0 -107 19.5t-88 55.5t-58.5 89t-18.5 121z" />
<glyph unicode="&#x16d;" d="M156 467v598h190v-557q0 -195 61.5 -279t206.5 -84q31 0 64 2.5t61.5 5.5t52 6t33.5 7v899h191v-1034q-66 -16 -173.5 -35t-248.5 -19q-123 0 -207 36t-135 101.5t-73.5 154.5t-22.5 198zM313 1534h123q2 -23 9 -49.5t23.5 -48t45 -36t71.5 -14.5t72 14.5t45 36t23.5 48 t9.5 49.5h123q2 -68 -18.5 -121t-58.5 -89t-88 -55.5t-108 -19.5q-57 0 -107 19.5t-88 55.5t-58.5 89t-18.5 121z" />
<glyph unicode="&#x16e;" horiz-adv-x="1417" d="M170 528v891h199v-868q0 -213 94 -309.5t246 -96.5q76 0 138 24t107 73t70 125.5t25 183.5v868h198v-891q0 -119 -31.5 -221t-98 -177t-168 -118t-240.5 -43t-241.5 43t-168.5 118t-97.5 177t-31.5 221zM497 1705q0 49 17.5 87t46 66t66.5 42t81 14t81 -14t66.5 -42 t46 -65.5t17.5 -87.5q0 -49 -17.5 -86.5t-46 -65.5t-66.5 -42t-81 -14t-81 14t-66.5 42t-46 65.5t-17.5 86.5zM600 1705q0 -53 31.5 -82.5t76.5 -29.5t77 29.5t32 82.5t-32 83t-77 30t-76.5 -30t-31.5 -83z" />
<glyph unicode="&#x16f;" d="M156 467v598h190v-557q0 -195 61.5 -279t206.5 -84q31 0 64 2.5t61.5 5.5t52 6t33.5 7v899h191v-1034q-66 -16 -173.5 -35t-248.5 -19q-123 0 -207 36t-135 101.5t-73.5 154.5t-22.5 198zM375 1386q0 49 17.5 87t46 66t66.5 42t81 14t81 -14t66.5 -42t46 -65.5 t17.5 -87.5q0 -49 -17.5 -86.5t-46 -65.5t-66.5 -42t-81 -14t-81 14t-66.5 42t-46 65.5t-17.5 86.5zM478 1386q0 -53 31.5 -82.5t76.5 -29.5t77 29.5t32 82.5t-32 83t-77 30t-76.5 -30t-31.5 -83z" />
<glyph unicode="&#x170;" horiz-adv-x="1417" d="M170 528v891h199v-868q0 -213 94 -309.5t246 -96.5q76 0 138 24t107 73t70 125.5t25 183.5v868h198v-891q0 -119 -31.5 -221t-98 -177t-168 -118t-240.5 -43t-241.5 43t-168.5 118t-97.5 177t-31.5 221zM451 1581l235 327l115 -114l-252 -287zM789 1581l235 327l115 -114 l-252 -287z" />
<glyph unicode="&#x171;" d="M156 467v598h190v-557q0 -195 61.5 -279t206.5 -84q31 0 64 2.5t61.5 5.5t52 6t33.5 7v899h191v-1034q-66 -16 -173.5 -35t-248.5 -19q-123 0 -207 36t-135 101.5t-73.5 154.5t-22.5 198zM328 1262l235 327l115 -114l-252 -287zM666 1262l235 327l115 -114l-252 -287z " />
<glyph unicode="&#x172;" horiz-adv-x="1417" d="M170 528v891h199v-868q0 -213 94 -309.5t246 -96.5q76 0 138 24t107 73t70 125.5t25 183.5v868h198v-891q0 -166 -60.5 -295t-189.5 -202l-85 -54q-38 -25 -68 -57q-29 -33 -44.5 -57.5t-15.5 -52.5q0 -59 82 -60q14 0 38 3t46 11l15 -124q-23 -10 -59 -16.5t-77 -6.5 q-115 0 -170 42t-55 114q0 57 38 109t77 87h-10q-139 0 -241.5 43t-168.5 118t-97.5 177t-31.5 221z" />
<glyph unicode="&#x173;" d="M156 467v598h190v-557q0 -195 61.5 -279t206.5 -84q31 0 64 2.5t61.5 5.5t52 6t33.5 7v899h191v-1040q-25 -18 -54.5 -45t-60.5 -60q-29 -33 -47 -57.5t-18 -52.5q0 -59 82 -60q14 0 37.5 3t45.5 11l15 -124q-23 -10 -58.5 -16.5t-76.5 -6.5q-115 0 -170.5 42t-55.5 114 q0 47 29 91t64 81q10 12 25 24.5t26 22.5q-47 -6 -97.5 -10.5t-107.5 -4.5q-123 0 -207 36t-135 101.5t-73.5 154.5t-22.5 198z" />
<glyph unicode="&#x174;" horiz-adv-x="1910" d="M61 1419h209l60 -319l63 -310l66 -288q33 -137 67 -254l174 472q92 257 172 531h172q80 -274 175 -531l176 -472q33 115 65.5 252t64 287.5l62.5 311.5l60 320h202q-74 -410 -156.5 -758t-189.5 -661h-198l-176.5 454.5t-172.5 508.5q-86 -274 -174 -508l-176 -455h-198 q-109 313 -192 661t-155 758zM676 1601l278 293l279 -293l-80 -90l-199 180l-199 -180z" />
<glyph unicode="&#x175;" horiz-adv-x="1599" d="M41 1065h205q20 -96 49 -209l60.5 -225.5t66.5 -217t65 -182.5q35 96 69 204t65 217l58 215q28 105 48 198h158q18 -92 44.5 -197.5t57.5 -215l64.5 -217t68.5 -204.5q31 78 65 182.5t66.5 217t61 225.5t49.5 209h197q-80 -313 -170.5 -583.5t-184.5 -481.5h-166 q-57 147 -121.5 336.5t-117.5 394.5q-53 -205 -117 -394.5t-121 -336.5h-166q-94 211 -184 481.5t-170 583.5zM521 1282l278 293l279 -293l-80 -90l-199 180l-199 -180z" />
<glyph unicode="&#x176;" horiz-adv-x="1232" d="M16 1419h234q78 -168 174 -341t199 -333q100 160 196 333t176 341h222l-236 -417l-264 -429v-573h-199v569l-266 432zM338 1601l278 293l279 -293l-80 -90l-199 180l-199 -180z" />
<glyph unicode="&#x177;" horiz-adv-x="1026" d="M8 -352l35 153q23 -10 58.5 -19t70.5 -9q113 0 176.5 50t114.5 163q-129 246 -240.5 521t-185.5 558h205q23 -92 54.5 -198.5t70.5 -219t84 -225.5t94 -217q78 215 135 426t108 434h197q-74 -301 -164 -578.5t-194 -519.5q-41 -92 -85 -158.5t-97.5 -109.5t-120 -63.5 t-150.5 -20.5q-23 0 -47.5 3t-48 8t-43 11.5t-27.5 10.5zM261 1282l278 293l279 -293l-80 -90l-199 180l-199 -180z" />
<glyph unicode="&#x178;" horiz-adv-x="1232" d="M16 1419h234q78 -168 174 -341t199 -333q100 160 196 333t176 341h222l-236 -417l-264 -429v-573h-199v569l-266 432zM303 1701q0 53 35.5 87t83.5 34q47 0 82.5 -33.5t35.5 -87.5q0 -53 -35.5 -86.5t-82.5 -33.5t-83 33.5t-36 86.5zM692 1701q0 53 36 87t83 34 t82.5 -33.5t35.5 -87.5q0 -53 -35.5 -86.5t-82.5 -33.5t-83 33.5t-36 86.5z" />
<glyph unicode="&#x179;" horiz-adv-x="1181" d="M72 0v133q43 82 101 180l125 201l138 207l143 201l137 180l122 147h-729v170h972v-157l-109 -128l-132 -166l-144 -193l-144 -205q-71 -103 -134.5 -205.5t-114.5 -194.5h799v-170h-1030zM465 1593l262 315l123 -121l-289 -280z" />
<glyph unicode="&#x17a;" horiz-adv-x="972" d="M78 0v127q49 90 120.5 198.5t150.5 216.5l154 202l130 161h-527v160h768v-143q-43 -47 -113 -134l-152 -190l-162 -219q-81 -115 -142 -219h586v-160h-813zM340 1274l262 315l123 -121l-289 -280z" />
<glyph unicode="&#x17b;" horiz-adv-x="1181" d="M72 0v133q43 82 101 180l125 201l138 207l143 201l137 180l122 147h-729v170h972v-157l-109 -128l-132 -166l-144 -193l-144 -205q-71 -103 -134.5 -205.5t-114.5 -194.5h799v-170h-1030zM479 1701q0 57 36 91t87 34t87 -33.5t36 -91.5q0 -57 -36 -91t-87 -34t-87 34 t-36 91z" />
<glyph unicode="&#x17c;" horiz-adv-x="972" d="M78 0v127q49 90 120.5 198.5t150.5 216.5l154 202l130 161h-527v160h768v-143q-43 -47 -113 -134l-152 -190l-162 -219q-81 -115 -142 -219h586v-160h-813zM354 1382q0 57 36 91t87 34t87 -33.5t36 -91.5q0 -57 -36 -91t-87 -34t-87 34t-36 91z" />
<glyph unicode="&#x17d;" horiz-adv-x="1181" d="M72 0v133q43 82 101 180l125 201l138 207l143 201l137 180l122 147h-729v170h972v-157l-109 -128l-132 -166l-144 -193l-144 -205q-71 -103 -134.5 -205.5t-114.5 -194.5h799v-170h-1030zM324 1812l79 90l199 -180l199 180l80 -90l-279 -293z" />
<glyph unicode="&#x17e;" horiz-adv-x="972" d="M78 0v127q49 90 120.5 198.5t150.5 216.5l154 202l130 161h-527v160h768v-143q-43 -47 -113 -134l-152 -190l-162 -219q-81 -115 -142 -219h586v-160h-813zM199 1493l79 90l199 -180l199 180l80 -90l-279 -293z" />
<glyph unicode="&#x17f;" horiz-adv-x="567" d="M168 0v1161q0 205 100.5 316.5t315.5 111.5q84 0 144 -12t85 -23l-35 -163q-25 12 -69.5 23t-110.5 11q-133 0 -186.5 -72.5t-53.5 -195.5v-1157h-190z" />
<glyph unicode="&#x180;" horiz-adv-x="1214" d="M16 1257v142h152v157l190 33v-190h363v-142h-363v-247q35 23 106 47t163 24q115 0 204 -40t150 -112.5t93 -174t32 -224.5q0 -129 -38 -231t-107.5 -175t-168 -111t-221.5 -38q-133 0 -235.5 18.5t-167.5 37.5v1226h-152zM358 166q29 -8 81.5 -15.5t129.5 -7.5 q154 0 246 100.5t92 286.5q0 82 -16.5 153t-53 122t-95 79.5t-140.5 28.5q-78 0 -143.5 -26.5t-100.5 -55.5v-665z" />
<glyph unicode="&#x181;" horiz-adv-x="1531" d="M35 1108q0 121 59.5 186.5t160.5 96t234.5 37t280.5 6.5q123 0 230.5 -18.5t187.5 -62.5t126 -116t46 -176q0 -117 -58.5 -191.5t-156.5 -109.5q131 -37 204.5 -117t73.5 -227q0 -213 -156.5 -320.5t-496.5 -107.5q-43 0 -93 2t-100.5 6t-99.5 10t-90 17v1224 q-186 -10 -186 -157q0 -16 1 -34t3 -30l-158 -18q-4 14 -8 42.5t-4 57.5zM584 160q23 -2 53 -4q27 -2 62 -2h83q88 0 167 11t138.5 39.5t95.5 80t36 129.5q0 70 -27 118t-77 77.5t-119.5 42t-155.5 12.5h-256v-504zM584 819h200q84 0 153 11.5t118 37t75.5 69.5t26.5 110 q0 61 -29.5 103t-81 67.5t-120 38t-144.5 12.5q-47 0 -82.5 -1t-62.5 -1h-53v-447z" />
<glyph unicode="&#x182;" horiz-adv-x="1275" d="M180 20v1399h877v-170h-678v-360h176q150 0 267.5 -24.5t199.5 -79t125 -139.5t43 -208q0 -225 -164 -338.5t-463 -113.5q-43 0 -93 2t-100.5 6t-99.5 10t-90 16zM379 166q23 -2 53 -4q27 -2 64 -2h84q80 0 152.5 12t127.5 44t88 85t33 135q0 86 -29.5 141.5t-85 88 t-136.5 46t-183 13.5h-168v-559z" />
<glyph unicode="&#x183;" horiz-adv-x="1214" d="M168 31v1548h821v-160h-631v-409q35 23 106 47t163 24q115 0 204 -40t150 -112.5t93 -174t32 -224.5q0 -129 -38 -231t-107.5 -175t-168 -111t-221.5 -38q-133 0 -235 19t-168 37zM358 166q29 -8 81.5 -15.5t129.5 -7.5q154 0 246 100.5t92 286.5q0 82 -16.5 153t-53 122 t-95 79.5t-140.5 28.5q-78 0 -143.5 -26.5t-100.5 -55.5v-665z" />
<glyph unicode="&#x184;" horiz-adv-x="1214" d="M25 1450q74 43 158.5 80t174.5 59v-571q35 23 106 47.5t163 24.5q115 0 204 -41t150 -115t93 -176.5t32 -225.5q0 -129 -38 -232t-107.5 -175t-168 -111t-221.5 -39q-133 0 -235.5 18.5t-167.5 37.5v1263zM358 166q29 -8 81.5 -15.5t129.5 -7.5q154 0 246 101.5t92 287.5 q0 82 -16.5 154t-53 124t-95 82t-140.5 30q-78 0 -143.5 -27t-100.5 -55v-674z" />
<glyph unicode="&#x185;" horiz-adv-x="1277" d="M45 1292q74 43 161 80t181 62v-531q41 4 83 5t83 1q645 0 645 -465q0 -229 -167 -343.5t-466 -114.5q-86 0 -189.5 7t-187.5 27v1117zM387 166q23 -2 51 -4q25 -2 61 -2h83q80 0 153.5 12t130 45t90 87t33.5 140t-32.5 143.5t-91 90.5t-139.5 46t-179 13h-79 q-40 0 -81 -4v-567z" />
<glyph unicode="&#x186;" horiz-adv-x="1277" d="M55 59l51 164q45 -23 134.5 -51.5t224.5 -28.5q119 0 208 41t149.5 116t91 179.5t30.5 231.5t-29.5 231.5t-89 179t-149.5 115.5t-211 41q-135 0 -222 -27.5t-132 -50.5l-52 158q14 10 50 26.5t91.5 32t128 25.5t158.5 10q150 0 273 -50t211 -145.5t136 -232.5t48 -313 q0 -174 -48 -312.5t-136 -233.5t-210 -145.5t-272 -50.5q-86 0 -159.5 10.5t-130 24.5t-93.5 29.5t-51 25.5z" />
<glyph unicode="&#x187;" horiz-adv-x="1366" d="M123 711q0 178 54 316t146.5 232.5t215.5 143.5t262 49q84 -4 141 -15.5t107 -27.5q33 106 97 153.5t193 47.5q29 0 68 -7.5t61 -17.5l-32 -145q-16 6 -44 10t-44 4q-57 0 -90 -22.5t-51.5 -59.5t-28 -83t-21.5 -91q-18 8 -53 21.5t-80 27t-97.5 22.5t-105.5 9 q-113 0 -203 -39t-153.5 -112.5t-97 -179t-33.5 -236.5q0 -127 29.5 -231.5t89 -179.5t148.5 -116t208 -41q137 0 227 29t135 51l52 -164q-14 -10 -51 -25.5t-92.5 -29.5t-129 -24.5t-159.5 -10.5q-150 0 -273 49.5t-211 143.5t-136 232.5t-48 316.5z" />
<glyph unicode="&#x188;" horiz-adv-x="1048" d="M109 530q0 123 35.5 225.5t101 177.5t161 117t211.5 42q61 0 123 -13q37 115 100.5 162t184.5 47q29 0 65.5 -7t59.5 -17l-33 -138q-16 6 -41.5 10.5t-42.5 4.5q-53 0 -83.5 -22.5t-48 -59.5t-25.5 -83l-17 -95q-12 4 -35.5 11t-54.5 14t-65.5 12.5t-67.5 5.5 q-160 0 -245 -100.5t-85 -293.5q0 -86 19.5 -157.5t61.5 -122.5t107.5 -79t159.5 -28q76 0 137.5 14.5t96.5 30.5l26 -159q-16 -10 -46.5 -19.5t-69.5 -16.5t-83 -12.5t-85 -5.5q-129 0 -226.5 41t-164 115t-99 175t-32.5 224z" />
<glyph unicode="&#x189;" horiz-adv-x="1495" d="M43 664v153h164v582q84 20 187.5 27.5t189.5 7.5q174 0 319.5 -44t249.5 -133.5t161.5 -225.5t57.5 -320t-57.5 -320.5t-161.5 -225.5t-249.5 -133t-319.5 -44q-86 0 -189.5 7t-187.5 28v641h-164zM406 168q18 -2 64 -4t130 -2q283 0 422 144.5t139 404.5t-139 404.5 t-422 144.5q-84 0 -130 -2.5t-64 -4.5v-436h266v-153h-266v-496z" />
<glyph unicode="&#x18a;" horiz-adv-x="1675" d="M33 1108q0 121 60.5 186.5t160.5 96t232 37t278 6.5q174 0 319.5 -44t250 -133.5t161.5 -225.5t57 -320t-57 -320.5t-161.5 -225.5t-250 -133t-319.5 -44q-86 0 -189.5 7t-187.5 28v1224q-188 -10 -188 -157q0 -16 1 -34t3 -30l-158 -18q-4 14 -8 42.5t-4 57.5zM586 168 q23 -2 51 -4q25 -2 60 -2h83q283 0 422 144.5t139 404.5t-139 404.5t-422 144.5q-92 0 -142 -1.5t-52 -1.5v-1089z" />
<glyph unicode="&#x18b;" horiz-adv-x="1288" d="M98 438q0 123 43 208t125 139.5t200 79t267 24.5h176v364h-678v166h877v-1399q-41 -10 -90 -16t-100.5 -10t-100.5 -6t-92 -2q-299 0 -463 113.5t-164 338.5zM307 436q0 -82 33 -135t88 -85t128 -44t153 -12h84q37 0 63 2q31 2 53 4v559h-168q-102 0 -183 -13.5t-136 -46 t-85 -88t-30 -141.5z" />
<glyph unicode="&#x18c;" horiz-adv-x="1214" d="M109 530q0 123 31.5 224.5t93 174t150.5 112.5t204 40q92 0 162.5 -24.5t105.5 -46.5v409h-631v160h822v-1548q-66 -18 -168.5 -37t-235.5 -19q-123 0 -221 38t-168 111t-107.5 175t-37.5 231zM307 530q0 -186 92.5 -286.5t245.5 -100.5q78 0 130 7.5t81 15.5v665 q-35 29 -100.5 55.5t-143.5 26.5q-82 0 -140 -28.5t-95 -79.5t-53.5 -122t-16.5 -153z" />
<glyph unicode="&#x18d;" horiz-adv-x="1200" d="M109 582q0 86 23.5 177t80.5 164.5t154.5 121t244.5 47.5q121 0 211 -43t149.5 -113t89.5 -159t30 -183q0 -72 -25 -142.5t-69 -135t-105.5 -118t-134.5 -85.5q68 -41 112.5 -92.5t44.5 -129.5q0 -74 -31.5 -125t-86 -83.5t-124 -47t-143.5 -14.5q-51 0 -102 5t-96 13.5 t-79 17.5t-50 15l35 156q31 -14 106.5 -34.5t181.5 -20.5q98 0 151.5 21.5t53.5 80.5q0 43 -25.5 71.5t-68.5 53.5t-99.5 50.5t-117.5 60.5q-141 78 -226 188.5t-85 282.5zM303 588q0 -59 12.5 -104.5t34 -82t51 -65.5t66.5 -55q31 -23 65.5 -43.5t69.5 -38.5 q66 27 121 68.5t95 94t61.5 111.5t21.5 121q0 68 -18.5 128t-54 106t-90 73t-126.5 27q-94 0 -154.5 -32t-94 -82t-47 -110.5t-13.5 -115.5z" />
<glyph unicode="&#x18e;" horiz-adv-x="1177" d="M80 0v170h719v492h-594v165h594v422h-668v170h866v-1419h-917z" />
<glyph unicode="&#x18f;" horiz-adv-x="1452" d="M119 680q0 16 2 40.5t4 37.5h997q-18 264 -140 392t-372 128q-66 0 -120 -9t-97 -22.5t-74.5 -28l-52.5 -24.5l-49 164q16 12 53 27.5t90.5 31t123 25.5t149.5 10q178 0 309 -55.5t217 -153.5t128 -233.5t42 -292.5q0 -188 -49 -327.5t-135 -234t-202 -140.5t-251 -46 q-268 0 -420.5 178.5t-152.5 532.5zM328 596q0 -100 24.5 -184t70.5 -144.5t114.5 -94.5t158.5 -34q104 0 181 41t128.5 105.5t78 146.5t32.5 164h-788z" />
<glyph unicode="&#x190;" horiz-adv-x="1179" d="M109 393q0 82 25.5 143.5t67.5 107.5t98 76t118 46q-121 39 -183.5 125t-62.5 184q0 96 37 167t102.5 117t155.5 68.5t197 22.5q63 0 125.5 -7t114.5 -19.5t94 -28t67 -31.5l-64 -162q-43 27 -133 52.5t-202 25.5q-131 0 -210 -58.5t-79 -150.5q0 -72 37 -119t94 -74.5 t127 -38t137 -10.5h107v-161h-127q-92 0 -171 -11.5t-137.5 -42t-92.5 -83t-34 -134.5q0 -139 97.5 -197.5t271.5 -58.5q63 0 120.5 10.5t104.5 24.5t85 30.5t61 29.5l59 -164q-23 -12 -63.5 -30.5t-96 -34t-125 -27t-147.5 -11.5q-129 0 -235.5 23.5t-181 75t-116.5 132 t-42 193.5z" />
<glyph unicode="&#x191;" horiz-adv-x="1107" d="M-53 -367l18 150q16 -6 44 -8t44 -2q76 0 101.5 50t25.5 142v1454h856v-166h-657v-434h584v-162h-584v-657q0 -94 -13.5 -166t-47 -120t-93 -72.5t-151.5 -24.5q-29 0 -66.5 5t-60.5 11z" />
<glyph unicode="&#x192;" horiz-adv-x="1163" d="M-170 -350l39 162q18 -8 57 -17.5t94 -9.5q63 0 106.5 19.5t70 55.5t42 86t25.5 111l152 957q16 102 48 183t84 136.5t127 84t177 28.5q84 0 144.5 -14.5t84.5 -24.5l-39 -164q-25 12 -69.5 25.5t-110.5 13.5q-68 0 -112.5 -19.5t-73.5 -55.5t-44.5 -86t-25.5 -111 l-24 -150h366v-160h-391l-102 -647q-16 -102 -47 -183t-80 -136.5t-121 -84t-168 -28.5q-80 0 -132 9.5t-77 19.5z" />
<glyph unicode="&#x193;" horiz-adv-x="1384" d="M123 711q0 178 53 316t144.5 232.5t214 143.5t264.5 49q92 0 151.5 -13.5t108.5 -29.5q33 106 97.5 153.5t193.5 47.5q29 0 67.5 -7.5t61.5 -17.5l-33 -145q-16 6 -44 10t-44 4q-57 0 -90 -22.5t-51.5 -59.5t-27.5 -83t-22 -91q-18 8 -54 21.5t-83 27t-103.5 22.5 t-117.5 9q-109 0 -197 -39t-149.5 -112.5t-95 -179t-33.5 -236.5q0 -127 29.5 -231.5t90 -179.5t149.5 -116t210 -41q86 0 146.5 9.5t87.5 17.5v522h198v-657q-25 -8 -71 -18.5t-106 -20.5t-132 -17.5t-145 -7.5q-150 0 -273 49.5t-211 143.5t-136 231.5t-48 315.5z" />
<glyph unicode="&#x194;" horiz-adv-x="1339" d="M20 1419h207l216 -460l229 -463l227 462l217 461h203l-144 -312l-135 -280l-130 -256l-132 -241l25 -43l63.5 -109.5t52 -95.5t35 -88t13.5 -88t-14.5 -95.5t-49.5 -91.5t-92 -68.5t-141 -27.5t-141.5 27.5t-92.5 68.5t-49 91.5t-14 95.5t14 88t36.5 88t53.5 95t64 110 l20 37l-133 243l-131 258l-133 281zM549 -84q0 -55 30.5 -95t90.5 -40q59 0 90 40t31 95q0 66 -41 131l-80 131l-80 -131q-41 -65 -41 -131z" />
<glyph unicode="&#x195;" horiz-adv-x="1832" d="M168 0v1556l190 33v-545q53 20 108.5 31.5t115.5 11.5q129 0 212 -35.5t131 -100t65.5 -154.5t17.5 -199v-119q0 -180 58 -254.5t181 -74.5t181.5 74.5t58.5 254.5v586h190v-612q0 -90 -17.5 -176.5t-64.5 -153t-131 -106.5t-217 -40t-217 40t-131 106.5t-64.5 152.5 t-17.5 177v104q0 98 -11 168t-40 113t-79 62.5t-126 19.5q-61 0 -120.5 -12.5t-82.5 -22.5v-885h-190z" />
<glyph unicode="&#x196;" horiz-adv-x="778" d="M180 387v1032h199v-1040q0 -127 48 -182.5t146 -55.5q53 0 89 9.5t59 17.5l37 -164q-27 -12 -85.5 -23.5t-127.5 -11.5q-197 0 -281 99.5t-84 318.5z" />
<glyph unicode="&#x197;" horiz-adv-x="673" d="M33 664v153h205v602h198v-602h205v-153h-205v-664h-198v664h-205z" />
<glyph unicode="&#x198;" horiz-adv-x="1368" d="M180 0v1419h199v-635l97 120l113 137l120 141l118 129q61 66 117.5 101.5t149.5 35.5q86 0 145 -32t90 -66l-90 -142q-35 33 -73 49.5t-66 16.5q-45 0 -77 -21.5t-73 -64.5q-117 -119 -204 -223l-164 -203q88 -63 189 -154.5t199.5 -194t183.5 -210t140 -203.5h-233 q-61 96 -143 193.5t-173.5 186.5t-185.5 165t-180 129v-674h-199z" />
<glyph unicode="&#x199;" horiz-adv-x="1077" d="M168 0v1206q0 94 13.5 166t47 120t93 72.5t151.5 24.5q29 0 67 -5t60 -11l-18 -150q-16 6 -44 8.5t-44 2.5q-76 0 -106 -50.5t-30 -142.5v-623l109 109l117 121l108 118l88 99h224l-103 -113l-115 -124l-119 -125l-114 -117q61 -47 130 -117t135.5 -150.5t126 -163.5 t99.5 -155h-223q-43 72 -99 146.5t-117.5 143t-125 126t-121.5 96.5v-512h-190z" />
<glyph unicode="&#x19a;" horiz-adv-x="595" d="M33 752v143h160v661l190 33v-694h188v-143h-188v-443q0 -47 8 -77.5t26.5 -49t49.5 -28t76 -15.5l-27 -159q-176 4 -249.5 75.5t-73.5 223.5v473h-160z" />
<glyph unicode="&#x19b;" horiz-adv-x="1052" d="M37 0q29 119 74 254t100 276.5t119.5 280.5t130.5 266l-47 109l-217 -74l-47 129l204 70q-35 59 -74.5 90t-99.5 31q-29 0 -50 -4.5t-32 -8.5l-26 154q10 4 48 10t87 6q123 0 197.5 -60.5t123.5 -158.5l254 88l47 -129l-243 -84q70 -168 132 -335l116.5 -326.5t98.5 -307 t79 -276.5h-199l-120 420q-67 227 -148 452q-55 -111 -103.5 -228.5t-88.5 -231t-70.5 -219t-51.5 -193.5h-194z" />
<glyph unicode="&#x19c;" horiz-adv-x="2004" d="M180 537v882h199v-831q0 -117 12 -201t43 -138t85 -80t140 -26q45 0 89.5 8.5t81 21.5t65.5 29.5t47 30.5q-20 66 -29.5 145t-9.5 159v882h199v-831q0 -117 12 -201t43 -138t85 -80t138 -26q33 0 70 2t71.5 6.5t62.5 8.5t42 8v1251h199v-1394q-76 -20 -201 -38t-266 -18 q-104 0 -186 29t-144 94l-60.5 -35.5t-88 -41t-111.5 -33t-131 -13.5q-141 0 -230.5 42t-139.5 118t-68.5 180.5t-18.5 227.5z" />
<glyph unicode="&#x19d;" horiz-adv-x="1499" d="M-53 -367l18 150q16 -6 44 -8t44 -2q76 0 101.5 50t25.5 142v1454h158q96 -102 206 -238l217 -281l203 -284q95 -139 160 -247v1050h195v-1419h-166l-103 170l-126 196l-141 205l-144 202l-139 183l-125 152v-1108q0 -94 -12.5 -166t-45 -120t-92 -72.5t-151.5 -24.5 q-29 0 -66.5 5t-60.5 11z" />
<glyph unicode="&#x19e;" d="M168 0v1034q66 16 174.5 34.5t249.5 18.5q127 0 211 -35.5t134 -100t70.5 -154.5t20.5 -199v-977h-190v936q0 98 -13.5 168t-44 113t-82 62.5t-127.5 19.5q-31 0 -63.5 -2.5t-62 -5.5t-53 -7l-34.5 -6v-899h-190z" />
<glyph unicode="&#x19f;" horiz-adv-x="1601" d="M123 711q0 182 54 321t147.5 232.5t217.5 140.5t263 47q137 0 259 -47t214 -140.5t146.5 -232.5t54.5 -321t-54.5 -321.5t-146.5 -233t-214 -140.5t-259 -47q-139 0 -263 47t-217.5 140.5t-147.5 233t-54 321.5zM334 639q18 -229 140 -362.5t327 -133.5q100 0 182 35 t141.5 99.5t95 155.5t44.5 206h-930zM334 793h930q-10 113 -46 201.5t-96.5 152t-141.5 97.5t-179 34q-205 0 -326 -129t-141 -356z" />
<glyph unicode="&#x1a0;" horiz-adv-x="1601" d="M123 711q0 182 54 321t147.5 232.5t217.5 140.5t263 47q113 0 215 -31.5t188 -97.5q53 59 67.5 113.5t14.5 126.5q0 20 -1 42.5t-3 34.5h193q2 -23 2 -42v-31q0 -98 -42 -186.5t-120 -161.5q74 -92 117 -219.5t43 -288.5q0 -182 -54.5 -321.5t-146.5 -233t-214 -140.5 t-259 -47q-139 0 -263 47t-217.5 140.5t-147.5 233t-54 321.5zM332 711q0 -129 32.5 -234.5t93 -179.5t147.5 -114t196 -40q106 0 193 40t147.5 114t93.5 179.5t33 234.5t-33 234.5t-93.5 179t-147.5 113.5t-193 40q-109 0 -196 -40t-147.5 -113.5t-93 -179t-32.5 -234.5z " />
<glyph unicode="&#x1a1;" horiz-adv-x="1216" d="M109 532q0 125 36.5 228.5t103 177.5t159 114t200.5 40q94 0 176 -31t146 -88q49 59 63.5 111.5t14.5 123.5q0 20 -1 43t-3 35h188q2 -23 2 -42v-32q0 -207 -168 -356q39 -66 60.5 -147.5t21.5 -176.5q0 -127 -37 -229t-103.5 -176t-158.5 -114t-201 -40t-201 40 t-158.5 114t-103 176t-36.5 229zM307 532q0 -180 80 -285.5t221 -105.5t221 105.5t80 285.5t-79.5 286t-221.5 106q-141 0 -221 -106t-80 -286z" />
<glyph unicode="&#x1a2;" horiz-adv-x="2105" d="M121 711q0 182 52 320t141 231.5t208 140.5t250 47q104 0 201.5 -30.5t177.5 -90.5q47 39 134 80t206 41q141 0 226 -39t131 -109.5t61.5 -172t15.5 -224.5v-905h-199v854q0 117 -13 196.5t-42 130t-78 73t-118 22.5q-66 0 -116 -21.5t-85 -46.5q68 -92 107.5 -216 t39.5 -281q0 -182 -51 -320.5t-140 -231.5t-207 -140.5t-251 -47.5t-251 47.5t-207 140.5t-141 231.5t-52 320.5zM330 711q0 -129 29.5 -233.5t87 -178.5t139.5 -114t186 -40t186 40t138.5 114t86 178.5t29.5 233.5t-29.5 233.5t-86 178t-138 113.5t-186.5 40 q-104 0 -186 -40t-139.5 -113.5t-87 -178t-29.5 -233.5z" />
<glyph unicode="&#x1a3;" horiz-adv-x="1689" d="M109 532q0 125 36.5 228.5t102 177.5t155 114t193.5 40q80 0 150.5 -25t130.5 -70q41 29 115.5 59.5t164.5 30.5q123 0 196.5 -35.5t113.5 -101t53.5 -155.5t13.5 -197v-977h-191v936q0 94 -8 161.5t-30.5 113t-63.5 67t-104 21.5q-53 0 -88 -13.5t-60 -29.5 q43 -70 67.5 -156t24.5 -189q0 -127 -36.5 -229t-101 -176t-154 -114t-193.5 -40t-193.5 40t-155 114t-102 176t-36.5 229zM307 532q0 -180 78 -285.5t211 -105.5t211 105.5t78 285.5t-78 286t-211 106t-211 -106t-78 -286z" />
<glyph unicode="&#x1a4;" horiz-adv-x="1462" d="M35 1108q0 121 60.5 186.5t160.5 96t232.5 37t277.5 6.5q299 0 459.5 -114t160.5 -339q0 -123 -44 -208t-126.5 -139t-201.5 -79t-269 -25h-157v-530h-199v1247q-188 -10 -188 -157q0 -16 1 -34t3 -30l-158 -18q-4 14 -8 42.5t-4 57.5zM588 694h149q102 0 184.5 13.5 t138.5 46t87 88t31 141.5q0 82 -32 135t-86 85t-126 44.5t-152 12.5q-94 0 -141 -1.5t-53 -1.5v-563z" />
<glyph unicode="&#x1a5;" horiz-adv-x="1214" d="M168 -379v1585q0 94 13.5 166t47 120t93 72.5t151.5 24.5q29 0 67 -5t60 -11l-18 -150q-16 6 -44 8.5t-44 2.5q-76 0 -106 -50.5t-30 -142.5v-194q53 18 111.5 29t112.5 11q117 0 214 -38.5t165.5 -110.5t106.5 -175.5t38 -232.5q0 -121 -32 -223t-93 -176t-150.5 -115 t-203.5 -41q-92 0 -163 25t-106 47v-426h-190zM358 225q35 -29 100.5 -55.5t143.5 -26.5q82 0 140.5 30t95 82t53 123t16.5 152q0 186 -92 288t-246 102q-31 0 -63.5 -4.5t-62 -9.5t-52 -11t-33.5 -10v-660z" />
<glyph unicode="&#x1a6;" horiz-adv-x="1296" d="M180 0v1589h199v-168q76 6 178 6q299 0 455.5 -109.5t156.5 -332.5q0 -139 -78.5 -238.5t-222.5 -148.5q35 -43 92.5 -122t124 -185.5t138 -237.5t135.5 -276h-213q-147 299 -272 493.5t-205 288.5h-289v-559h-199zM379 721h141q102 0 184 9t138.5 38t87.5 81t31 138 q0 80 -31 133.5t-83 84t-123 43t-151 12.5h-110q-45 0 -84 -5v-534z" />
<glyph unicode="&#x1a7;" horiz-adv-x="1097" d="M68 356q0 100 30.5 171t87 122t133 88t168.5 74q63 25 119 49.5t96.5 54t63 68.5t22.5 96q0 51 -21.5 89t-58 62.5t-86 37t-106.5 12.5q-113 0 -198 -25.5t-128 -52.5l-63 162q49 33 154.5 60.5t234.5 27.5q223 0 350 -104.5t127 -290.5q0 -90 -29.5 -153.5t-81 -109.5 t-121 -80t-147.5 -61l-128 -49t-107 -58t-75 -80t-28 -112q0 -213 312 -213q139 0 235.5 33t143.5 59l59 -163q-23 -12 -62.5 -29.5t-95 -33t-126 -27t-154.5 -11.5q-248 0 -384 100.5t-136 286.5z" />
<glyph unicode="&#x1a8;" horiz-adv-x="921" d="M84 274q0 76 22.5 128.5t65.5 89t102.5 64.5t133.5 56q113 43 167 80t54 109q0 68 -59.5 99.5t-139.5 31.5q-92 0 -157.5 -17.5t-96.5 -33.5l-35 163q16 6 46 14.5t69 15.5t83 12.5t91 5.5q180 0 284.5 -83t104.5 -225q0 -72 -24.5 -121t-65.5 -83.5t-97.5 -60 t-117.5 -50.5q-127 -51 -182.5 -92t-55.5 -111q0 -68 56.5 -98.5t173.5 -30.5q119 0 190.5 24.5t104.5 37.5l35 -164q-29 -12 -109 -36t-221 -24q-201 0 -311.5 76t-110.5 223z" />
<glyph unicode="&#x1a9;" horiz-adv-x="1161" d="M72 0v150q39 63 93 133l117 144l128 153l127 157l-122 156l-121 150l-109 137q-50 63 -85 114v125h973v-170h-711q29 -43 75 -101l101 -125l113 -139l115 -145q-113 -147 -240 -289.5t-223 -279.5h772v-170h-1003z" />
<glyph unicode="&#x1aa;" horiz-adv-x="593" d="M-184 1313q0 37 13 85t47 91t90.5 71.5t142.5 28.5q174 0 245.5 -98t71.5 -272v-1272q0 -47 8 -78t26.5 -49.5t49.5 -27.5t76 -15l-27 -160q-176 4 -249.5 75.5t-73.5 223.5v1165q-68 -41 -156 -41q-70 0 -120 25t-82 62.5t-47 87t-15 98.5zM-37 1311q0 -23 7 -46.5 t22.5 -44t41 -32.5t62.5 -12q45 0 78 17t62 50v29q0 82 -35 126t-105 44q-66 0 -99.5 -42t-33.5 -89z" />
<glyph unicode="&#x1ab;" horiz-adv-x="831" d="M156 412v950l190 33v-330h404v-160h-404v-491q0 -80 12.5 -132.5t37 -82t61.5 -42t86 -12.5q88 0 147.5 10.5t79.5 14.5q2 -12 4 -35l4 -47q2 -25 3 -48.5t1 -39.5q0 -88 -10 -158.5t-40 -121t-85 -77t-145 -26.5q-29 0 -66 5t-59 11l16 140q12 -4 41 -7.5t45 -3.5 q78 0 104.5 51.5t26.5 143.5q0 4 -1 11t-1 14v12l-59 -5q-35 -3 -70 -3q-174 0 -248.5 105.5t-74.5 320.5z" />
<glyph unicode="&#x1ac;" horiz-adv-x="1220" d="M35 1108q0 92 32.5 152.5t83 95.5t113 49t123.5 14h797v-166h-447v-1253h-198v1253h-144q-86 0 -137 -44t-51 -119q0 -16 1 -34t3 -30l-164 -18q-4 14 -8 42.5t-4 57.5z" />
<glyph unicode="&#x1ad;" horiz-adv-x="831" d="M156 412v749q0 205 99 316.5t316 111.5q86 0 145.5 -12t84.5 -23l-35 -163q-25 12 -70 23t-110 11q-133 0 -186.5 -72.5t-53.5 -195.5v-92h416v-160h-416v-491q0 -80 12.5 -132.5t37 -82t61.5 -42t86 -12.5q88 0 139 19.5t70 28.5l39 -156q-29 -14 -101 -37t-164 -23 q-109 0 -179.5 28t-113.5 83t-60 136.5t-17 187.5z" />
<glyph unicode="&#x1ae;" horiz-adv-x="1165" d="M37 1253v166h1091v-166h-446v-1288q0 -92 25.5 -142t101.5 -50q16 0 44 2t44 8l18 -150q-23 -6 -60.5 -11t-66.5 -5q-92 0 -151 24.5t-93 72.5t-47.5 120t-13.5 166v1253h-446z" />
<glyph unicode="&#x1af;" horiz-adv-x="1462" d="M170 528v891h199v-868q0 -106 24.5 -183t69.5 -126t107.5 -73t138.5 -24t138 24t107 73t70 125.5t25 183.5v868h149q47 0 83 35t36 109q0 20 -1 42.5t-3 34.5h192q2 -23 2 -42v-31q0 -47 -12 -94.5t-43 -87t-81 -67.5t-124 -36v-754q0 -119 -31.5 -221t-98 -177 t-168 -118t-240.5 -43t-241.5 43t-168.5 118t-97.5 177t-31.5 221z" />
<glyph unicode="&#x1b0;" horiz-adv-x="1230" d="M156 467v598h190v-557q0 -195 61.5 -279t206.5 -84q31 0 64 2.5t62.5 5.5t52 6t32.5 7v899h142q47 0 82.5 35t35.5 108q0 20 -1 43t-3 35h189q2 -23 2 -42v-32q0 -47 -12.5 -94t-41 -86t-78.5 -66.5t-124 -35.5v-899q-66 -16 -173.5 -35t-248.5 -19q-123 0 -207 36 t-135 101.5t-73.5 154.5t-22.5 198z" />
<glyph unicode="&#x1b1;" horiz-adv-x="1613" d="M111 1251v168h546v-139q-66 -53 -121 -115.5t-96 -138.5t-64.5 -167t-23.5 -202q0 -121 33 -217t92.5 -162.5t143.5 -101.5t186 -35t186 35t143.5 101.5t92.5 163t33 216.5q0 111 -24 202t-64.5 167t-97 138.5t-120.5 115.5v139h547v-168h-293q47 -45 94.5 -107.5 t84 -138t59 -163.5t22.5 -185q0 -170 -54 -299t-145 -216t-212 -131t-252 -44q-133 0 -253 44t-211 131t-145.5 216t-54.5 299q0 96 22.5 184.5t59.5 164t84 138t94 107.5h-292z" />
<glyph unicode="&#x1b2;" horiz-adv-x="1429" d="M170 528v891h199v-868q0 -106 24.5 -183t67.5 -126t101.5 -73t125.5 -24q199 0 298 138.5t99 431.5q0 272 -66.5 407t-223.5 135q-29 0 -46.5 -1t-29.5 -3l-6 166q25 4 56.5 5t59.5 1q131 0 219.5 -52t141.5 -145t76.5 -221t23.5 -278q0 -135 -27.5 -270t-96 -245 t-183.5 -177.5t-289 -67.5q-141 0 -240.5 43t-163 118t-92 177t-28.5 221z" />
<glyph unicode="&#x1b3;" horiz-adv-x="1384" d="M-18 1329q41 43 101 77t148 34q51 0 89 -8.5t67 -27t52.5 -49t47.5 -73.5l71 -127l76 -138l74 -140l66 -132q100 160 196.5 333t176.5 341h221l-235 -417l-265 -429v-573h-198v557l-84 160l-90 167l-89 160l-81 140q-29 49 -50.5 65.5t-62.5 16.5q-39 0 -68.5 -18.5 t-64.5 -53.5z" />
<glyph unicode="&#x1b4;" horiz-adv-x="1175" d="M10 -346l35 153q23 -10 58.5 -19t70.5 -9q55 0 98 11t77 35.5t61.5 64.5t52.5 96q-129 244 -240.5 521t-185.5 558h205q23 -92 54.5 -198.5t70.5 -219t84 -226.5t96 -218q27 80 50.5 157.5t45 156.5t41.5 162l43 173q27 113 86 176.5t186 63.5q41 0 83 -8.5t85 -22.5 l-32 -148q-37 18 -105 19q-59 0 -88 -32t-45 -93q-59 -242 -125.5 -449.5t-144.5 -390.5q-41 -92 -84 -157.5t-96.5 -107.5t-120 -61.5t-150.5 -19.5q-23 0 -47.5 3t-48 8.5t-43 11.5t-27.5 10z" />
<glyph unicode="&#x1b5;" horiz-adv-x="1181" d="M72 0v133q59 113 144 251l181 280h-243v153h352l178 242q86 113 158 194h-733v166h972v-157q-66 -74 -160 -190t-194 -255h313v-153h-422l-171 -256q-81 -127 -140 -242h795v-166h-1030z" />
<glyph unicode="&#x1b6;" horiz-adv-x="972" d="M78 0v119q43 84 105.5 180t133.5 195h-180v135h281l121 155l102 125h-535v156h768v-141q-41 -43 -107.5 -120t-141.5 -175h229v-135h-332l-120 -172q-58 -86 -105 -166h594v-156h-813z" />
<glyph unicode="&#x1b7;" horiz-adv-x="1169" d="M55 72l60 164q23 -12 60.5 -29t84.5 -31t104.5 -24.5t120.5 -10.5q174 0 271.5 59.5t97.5 198.5q0 82 -34 136.5t-92 87t-137 46t-171 13.5h-39v119l107 112l110 123l100 119l80 98h-657v166h909v-119q-31 -45 -78 -104t-104 -124l-119 -130l-119 -127q92 -10 175 -38.5 t144.5 -79t97.5 -126t36 -176.5q0 -111 -42 -191.5t-117 -133t-181.5 -77t-235.5 -24.5q-78 0 -147.5 11.5t-124.5 27t-96 34t-64 30.5z" />
<glyph unicode="&#x1b8;" horiz-adv-x="1169" d="M106 395q0 100 36 176t97.5 126.5t144.5 79t175 38.5l-120 127l-117 130l-104.5 124t-78.5 104v119h910v-166h-658l80 -98l100 -119l110 -123l107 -112v-119h-38q-92 0 -171 -13.5t-137.5 -46t-92.5 -87t-34 -136.5q0 -139 97.5 -198.5t271.5 -59.5q63 0 120.5 10.5 t104.5 24.5t85 30.5t61 29.5l59 -164q-23 -12 -63.5 -30.5t-96 -34t-125 -27t-147.5 -11.5q-129 0 -235.5 24.5t-181.5 77t-117 133t-42 191.5z" />
<glyph unicode="&#x1b9;" horiz-adv-x="972" d="M86 63q0 100 33 171t89 117t133 73t163 39l-106 124l-103 133l-91 127q-42 60 -71 107v111h795v-160h-559q27 -43 68 -99l90 -119l100 -124l96 -112v-125h-35q-78 0 -151.5 -10.5t-131 -39t-91 -79t-33.5 -129.5q0 -133 88 -206t254 -73q96 0 180 18.5t131 40.5l41 -163 q-51 -27 -146.5 -45.5t-207.5 -18.5q-121 0 -219.5 27.5t-169 83t-108.5 138t-38 193.5z" />
<glyph unicode="&#x1ba;" horiz-adv-x="978" d="M20 -233q0 68 24 109.5t63.5 69t91 44t108.5 30.5l141.5 33t120 39.5t84 64.5t31.5 105q0 92 -90 140.5t-309 54.5v127q104 92 189 177t136 144h-561v160h793v-117q-66 -84 -155 -177t-200 -191q98 -14 172 -38t122 -63t73 -96t25 -137q0 -98 -38 -158.5t-104.5 -100.5 t-155.5 -63.5l-192 -48.5q-29 -6 -63.5 -14t-65.5 -23.5t-51.5 -40t-20.5 -63.5q0 -31 7.5 -55.5t11.5 -34.5l-150 -31q-12 23 -24.5 60t-12.5 94z" />
<glyph unicode="&#x1bb;" horiz-adv-x="1124" d="M86 1286q29 29 69 58.5t91 53t115.5 39t142.5 15.5q211 0 326.5 -99.5t115.5 -287.5q0 -86 -42 -167t-107 -159h178v-149h-316l-114 -117q-86 -88 -147.5 -165t-65.5 -142h653v-166h-870q-8 94 14.5 175t65.5 152.5t101 136t120 126.5h-238v149h387q72 72 122 147t50 165 q0 61 -18.5 104t-50 71.5t-73.5 42t-91 13.5q-68 0 -121 -16.5t-94 -38t-68 -44.5l-41 -36z" />
<glyph unicode="&#x1bc;" horiz-adv-x="1110" d="M57 1253v166h926v-166h-545q-2 -29 -6 -79l-8 -108l-8 -110q-4 -53 -8 -84q311 -14 471.5 -136t160.5 -333q0 -94 -32.5 -173.5t-101 -137t-173 -90.5t-246.5 -33q-59 0 -119.5 8.5t-112.5 20.5t-91 24.5t-55 20.5l34 168q16 -8 50 -20.5t78 -23.5t98.5 -19.5t111.5 -8.5 q96 0 163 20.5t109 55.5t60 81t18 97q0 78 -31.5 137.5t-104 100.5t-191.5 61.5t-293 20.5l15 147q7 70 12.5 135.5t9.5 128.5l8 129h-199z" />
<glyph unicode="&#x1bd;" horiz-adv-x="1024" d="M61 913v152h824v-152h-492q-2 -25 -4 -58.5t-5 -69t-7 -67.5t-6 -54h43q117 0 212 -20.5t162.5 -64.5t104.5 -112t37 -160q0 -154 -120 -243t-349 -89q-57 0 -115.5 7.5t-109 16.5t-87 19.5t-51.5 16.5l35 160q12 -6 44 -15.5t76 -19.5t96 -17.5t108 -7.5q145 0 213.5 44 t68.5 128q0 57 -20.5 97t-71.5 65t-137 36t-217 11h-103q14 115 22.5 207t14.5 190h-166z" />
<glyph unicode="&#x1be;" horiz-adv-x="956" d="M100 35l35 164q31 -14 109 -38t196 -24q117 0 178.5 31t61.5 98q0 70 -55.5 112t-182.5 93q-61 25 -114.5 50.5t-91 64.5t-59 97t-21.5 148v531l192 33v-330h404v-158h-404v-78q0 -41 10.5 -72.5t34 -57t61.5 -47t95 -42.5q74 -29 133 -56.5t102 -64t65.5 -88 t22.5 -127.5q0 -147 -115.5 -223t-316.5 -76q-141 0 -226 24t-114 36z" />
<glyph unicode="&#x1bf;" horiz-adv-x="1177" d="M168 -379v1383q66 25 168 54t235 29q117 0 209 -32.5t156.5 -95t99.5 -150.5t35 -199q0 -164 -57.5 -279.5t-155.5 -198.5t-227 -141.5t-273 -105.5v-264h-190zM358 68q90 33 182.5 73.5t166 104t119.5 152.5t46 216q0 141 -79.5 222.5t-223.5 81.5q-86 0 -134 -12.5 t-77 -22.5v-815z" />
<glyph unicode="&#x1c0;" horiz-adv-x="579" d="M201 -379v1983h178v-1983h-178z" />
<glyph unicode="&#x1c1;" horiz-adv-x="997" d="M619 -379v1983h178v-1983h-178zM201 -379v1983h178v-1983h-178z" />
<glyph unicode="&#x1c2;" horiz-adv-x="1173" d="M94 348v152h404v241h-404v152h404v711h178v-711h403v-152h-403v-241h403v-152h-403v-727h-178v727h-404z" />
<glyph unicode="&#x1c3;" horiz-adv-x="573" d="M150 111q0 55 36.5 96t100.5 41q63 0 100 -41t37 -96t-37 -96.5t-100 -41.5t-100 41.5t-37 96.5zM184 1034v385h205v-385q0 -172 -12 -312t-31 -280h-119q-18 139 -30.5 279.5t-12.5 312.5z" />
<glyph unicode="&#x1c4;" horiz-adv-x="2650" d="M180 23v1376q84 20 187.5 27.5t189.5 7.5q174 0 319.5 -44t250 -133.5t162 -225.5t57.5 -320t-57.5 -320.5t-162 -225.5t-250 -133t-319.5 -44q-86 0 -189.5 7.5t-187.5 27.5zM379 168q18 -2 64 -4t130 -2q283 0 422.5 144.5t139.5 404.5t-139.5 404.5t-422.5 144.5 q-84 0 -130 -2.5t-64 -4.5v-1085zM1540 0v133q43 82 101 180l125 201l138 207l143 201l137 180l122 147h-729v170h972v-157l-109 -128l-132 -166l-144 -193l-144 -205q-71 -103 -134.5 -205.5t-114.5 -194.5h799v-170h-1030zM1792 1812l79 90l199 -180l199 180l80 -90 l-279 -293z" />
<glyph unicode="&#x1c5;" horiz-adv-x="2441" d="M180 23v1376q84 20 187.5 27.5t189.5 7.5q174 0 319.5 -44t250 -133.5t162 -225.5t57.5 -320t-57.5 -320.5t-162 -225.5t-250 -133t-319.5 -44q-86 0 -189.5 7.5t-187.5 27.5zM379 168q18 -2 64 -4t130 -2q283 0 422.5 144.5t139.5 404.5t-139.5 404.5t-422.5 144.5 q-84 0 -130 -2.5t-64 -4.5v-1085zM1546 0v127q49 90 120.5 198.5t150.5 216.5l154 202l130 161h-527v160h768v-143q-43 -47 -113 -134l-152 -190l-162 -219q-81 -115 -142 -219h586v-160h-813zM1667 1493l79 90l199 -180l199 180l80 -90l-279 -293z" />
<glyph unicode="&#x1c6;" horiz-adv-x="2187" d="M109 532q0 123 31.5 225.5t93 176.5t150.5 115t204 41q92 0 162.5 -25t105.5 -47v538l191 33v-1558q-66 -18 -168.5 -37t-235.5 -19q-123 0 -221 39t-168 111t-107.5 175t-37.5 232zM307 532q0 -186 92.5 -287.5t245.5 -101.5q78 0 130 7.5t81 15.5v674 q-35 29 -100.5 55.5t-143.5 26.5q-82 0 -140 -30t-95 -82t-53.5 -124t-16.5 -154zM1292 0v127q49 90 120.5 198.5t150.5 216.5l154 202l130 161h-527v160h768v-143q-43 -47 -113 -134l-152 -190l-162 -219q-81 -115 -142 -219h586v-160h-813zM1414 1493l79 90l199 -180 l199 180l80 -90l-279 -293z" />
<glyph unicode="&#x1c7;" horiz-adv-x="2093" d="M180 0v1419h199v-1247h655v-172h-854zM1091 84l78 158q43 -31 112 -65t171 -34q147 0 215 75t68 257v944h198v-962q0 -102 -21.5 -190.5t-75.5 -155t-145.5 -104.5t-228.5 -38q-70 0 -128 11.5t-105 29t-82.5 37t-55.5 37.5z" />
<glyph unicode="&#x1c8;" horiz-adv-x="1597" d="M180 0v1419h199v-1247h655v-172h-854zM936 -360l24 155q20 -6 47 -10t50 -4q98 0 140 60.5t42 176.5v1047h190v-1045q0 -205 -93 -304t-271 -99q-25 0 -63.5 6.5t-65.5 16.5zM1210 1382q0 57 36 91t87 34t87 -33.5t36 -91.5q0 -57 -36 -91t-87 -34t-87 34t-36 91z" />
<glyph unicode="&#x1c9;" horiz-adv-x="1093" d="M164 279v1277l190 33v-1280q0 -47 8.5 -77.5t27 -49t49 -28t75.5 -15.5l-27 -159q-176 4 -249.5 75.5t-73.5 223.5zM432 -360l24 155q20 -6 47 -10t50 -4q98 0 140 60.5t42 176.5v1047h190v-1045q0 -205 -93 -304t-271 -99q-25 0 -63.5 6.5t-65.5 16.5zM706 1382 q0 57 36 91t87 34t87 -33.5t36 -91.5q0 -57 -36 -91t-87 -34t-87 34t-36 91z" />
<glyph unicode="&#x1ca;" horiz-adv-x="2521" d="M180 0v1419h158q96 -102 206 -238l217 -281l203 -284q95 -139 160 -247v1050h195v-1419h-166l-103 170l-126 196l-141 205l-144 202l-139 183l-125 152v-1108h-195zM1519 84l78 158q43 -31 112 -65t171 -34q147 0 215 75t68 257v944h198v-962q0 -102 -21.5 -190.5 t-75.5 -155t-145.5 -104.5t-228.5 -38q-70 0 -128 11.5t-105 29t-82.5 37t-55.5 37.5z" />
<glyph unicode="&#x1cb;" horiz-adv-x="2025" d="M180 0v1419h158q96 -102 206 -238l217 -281l203 -284q95 -139 160 -247v1050h195v-1419h-166l-103 170l-126 196l-141 205l-144 202l-139 183l-125 152v-1108h-195zM1364 -360l24 155q20 -6 47 -10t50 -4q98 0 140 60.5t42 176.5v1047h190v-1045q0 -205 -93 -304 t-271 -99q-25 0 -63.5 6.5t-65.5 16.5zM1638 1382q0 57 36 91t87 34t87 -33.5t36 -91.5q0 -57 -36 -91t-87 -34t-87 34t-36 91z" />
<glyph unicode="&#x1cc;" horiz-adv-x="1710" d="M168 0v1034q66 16 174.5 34.5t249.5 18.5q127 0 211 -35.5t134 -100t70.5 -154.5t20.5 -199v-598h-190v557q0 98 -13.5 168t-44 113t-82 62.5t-127.5 19.5q-31 0 -63.5 -2.5t-62 -5.5t-53 -7l-34.5 -6v-899h-190zM1049 -360l24 155q20 -6 47 -10t50 -4q98 0 140 60.5 t42 176.5v1047h190v-1045q0 -205 -93 -304t-271 -99q-25 0 -63.5 6.5t-65.5 16.5zM1323 1382q0 57 36 91t87 34t87 -33.5t36 -91.5q0 -57 -36 -91t-87 -34t-87 34t-36 91z" />
<glyph unicode="&#x1cd;" horiz-adv-x="1366" d="M20 0l154 417l140 363l137 329q68 157 141 310h182q74 -154 141 -310l137 -329l140 -363l154 -417h-218l-65 181l-64 181h-643l-129 -362h-207zM414 526h528l-130 345q-65 167 -134 321q-72 -154 -136 -321zM404 1812l79 90l199 -180l199 180l80 -90l-279 -293z" />
<glyph unicode="&#x1ce;" horiz-adv-x="1077" d="M92 317q0 88 36 151.5t97.5 102.5t143.5 57.5t172 18.5q29 0 59.5 -3t57.5 -8l49 -9q20 -4 28 -6v53q0 47 -10 93t-36.5 82t-73 57.5t-119.5 21.5q-94 0 -165 -13.5t-106 -27.5l-22 157q37 16 123 32t186 16q115 0 193.5 -30t127 -84t69 -129t20.5 -165v-666l-69 -11 q-44 -7 -99.5 -13t-120 -11.5t-127.5 -5.5q-90 0 -166 18.5t-131 58.5t-86 105.5t-31 157.5zM285 319q0 -102 65.5 -142t177.5 -40q68 0 120 3t87 12v317q-20 10 -66 17.5t-112 7.5q-43 0 -91 -6.5t-88 -26t-66.5 -53.5t-26.5 -89zM261 1493l79 90l199 -180l199 180l80 -90 l-279 -293z" />
<glyph unicode="&#x1cf;" horiz-adv-x="559" d="M180 0v1419h199v-1419h-199zM5 1812l79 90l199 -180l199 180l80 -90l-279 -293z" />
<glyph unicode="&#x1d0;" horiz-adv-x="526" d="M168 0v1065h190v-1065h-190zM-10 1493l79 90l199 -180l199 180l80 -90l-279 -293z" />
<glyph unicode="&#x1d1;" horiz-adv-x="1601" d="M123 711q0 182 54 321t147.5 232.5t217.5 140.5t263 47q137 0 259 -47t214 -140.5t146.5 -232.5t54.5 -321t-54.5 -321.5t-146.5 -233t-214 -140.5t-259 -47q-139 0 -263 47t-217.5 140.5t-147.5 233t-54 321.5zM332 711q0 -129 32.5 -234.5t93 -179.5t147.5 -114 t196 -40t194.5 40t146 114t93.5 179.5t33 234.5t-33 234.5t-93.5 179t-146.5 113.5t-194 40q-109 0 -196 -40t-147.5 -113.5t-93 -179t-32.5 -234.5zM523 1812l79 90l199 -180l199 180l80 -90l-279 -293z" />
<glyph unicode="&#x1d2;" horiz-adv-x="1216" d="M109 532q0 125 36.5 228.5t103 177.5t159 114t200.5 40q109 0 201 -40t158.5 -114t103.5 -177.5t37 -228.5q0 -127 -37 -229t-103.5 -176t-158.5 -114t-201 -40t-201 40t-158.5 114t-103 176t-36.5 229zM307 532q0 -180 81 -285.5t220 -105.5t220 105.5t81 285.5 t-80.5 286t-220.5 106q-139 0 -220 -106t-81 -286zM330 1493l79 90l199 -180l199 180l80 -90l-279 -293z" />
<glyph unicode="&#x1d3;" horiz-adv-x="1417" d="M170 528v891h199v-868q0 -213 94 -309.5t246 -96.5q76 0 138 24t107 73t70 125.5t25 183.5v868h198v-891q0 -119 -31.5 -221t-98 -177t-168 -118t-240.5 -43t-241.5 43t-168.5 118t-97.5 177t-31.5 221zM430 1812l79 90l199 -180l199 180l80 -90l-279 -293z" />
<glyph unicode="&#x1d4;" d="M156 467v598h190v-557q0 -195 61.5 -279t206.5 -84q31 0 64 2.5t61.5 5.5t52 6t33.5 7v899h191v-1034q-66 -16 -173.5 -35t-248.5 -19q-123 0 -207 36t-135 101.5t-73.5 154.5t-22.5 198zM308 1493l79 90l199 -180l199 180l80 -90l-279 -293z" />
<glyph unicode="&#x1d5;" horiz-adv-x="1417" d="M170 528v891h199v-868q0 -213 94 -309.5t246 -96.5q76 0 138 24t107 73t70 125.5t25 183.5v868h198v-891q0 -119 -31.5 -221t-98 -177t-168 -118t-240.5 -43t-241.5 43t-168.5 118t-97.5 177t-31.5 221zM391 1643q0 51 31.5 81.5t78.5 30.5t79 -30.5t32 -81.5t-32 -82 t-79 -31t-78.5 31t-31.5 82zM448 1839v131h520v-131h-520zM804 1643q0 51 32 81.5t79 30.5q45 0 78 -30.5t33 -81.5t-33 -82t-78 -31q-47 0 -79 31t-32 82z" />
<glyph unicode="&#x1d6;" d="M156 467v598h190v-557q0 -195 61.5 -279t206.5 -84q31 0 64 2.5t61.5 5.5t52 6t33.5 7v899h191v-1034q-66 -16 -173.5 -35t-248.5 -19q-123 0 -207 36t-135 101.5t-73.5 154.5t-22.5 198zM269 1315q0 51 31.5 81.5t78.5 30.5t79 -30.5t32 -81.5t-32 -82t-79 -31t-78.5 31 t-31.5 82zM326 1511v131h520v-131h-520zM682 1315q0 51 32 81.5t79 30.5q45 0 78 -30.5t33 -81.5t-33 -82t-78 -31q-47 0 -79 31t-32 82z" />
<glyph unicode="&#x1d7;" horiz-adv-x="1417" d="M170 528v891h199v-868q0 -213 94 -309.5t246 -96.5q76 0 138 24t107 73t70 125.5t25 183.5v868h198v-891q0 -119 -31.5 -221t-98 -177t-168 -118t-240.5 -43t-241.5 43t-168.5 118t-97.5 177t-31.5 221zM319 1642q0 51 33 82t78 31q47 0 78.5 -30.5t31.5 -82.5 q0 -51 -31.5 -81.5t-78.5 -30.5q-45 0 -78 30.5t-33 81.5zM602 1681l196 289l123 -106l-227 -260zM876 1642q0 51 32 82t79 31t78.5 -30.5t31.5 -82.5q0 -51 -31.5 -81.5t-78.5 -30.5t-79 30.5t-32 81.5z" />
<glyph unicode="&#x1d8;" d="M156 467v598h190v-557q0 -195 61.5 -279t206.5 -84q31 0 64 2.5t61.5 5.5t52 6t33.5 7v899h191v-1034q-66 -16 -173.5 -35t-248.5 -19q-123 0 -207 36t-135 101.5t-73.5 154.5t-22.5 198zM258 1315q0 51 33 81.5t78 30.5q47 0 79 -30.5t32 -81.5t-32 -82t-79 -31 q-45 0 -78 31t-33 82zM498 1460l197 289l123 -107l-228 -260zM693 1315q0 51 31.5 81.5t78.5 30.5t79 -30.5t32 -81.5t-32 -82t-79 -31t-78.5 31t-31.5 82z" />
<glyph unicode="&#x1d9;" horiz-adv-x="1417" d="M170 528v891h199v-868q0 -213 94 -309.5t246 -96.5q76 0 138 24t107 73t70 125.5t25 183.5v868h198v-891q0 -119 -31.5 -221t-98 -177t-168 -118t-240.5 -43t-241.5 43t-168.5 118t-97.5 177t-31.5 221zM322 1642q0 51 33 82t78 31q47 0 78.5 -30.5t31.5 -82.5 q0 -51 -31.5 -81.5t-78.5 -30.5q-45 0 -78 30.5t-33 81.5zM457 1878l60 92l192 -125l193 125l59 -92l-252 -195zM879 1642q0 51 32 82t79 31t78.5 -30.5t31.5 -82.5q0 -51 -31.5 -81.5t-78.5 -30.5t-79 30.5t-32 81.5z" />
<glyph unicode="&#x1da;" d="M156 467v598h190v-557q0 -195 61.5 -279t206.5 -84q31 0 64 2.5t61.5 5.5t52 6t33.5 7v899h191v-1034q-66 -16 -173.5 -35t-248.5 -19q-123 0 -207 36t-135 101.5t-73.5 154.5t-22.5 198zM260 1315q0 51 33 81.5t78 30.5q47 0 79 -30.5t32 -81.5t-32 -82t-79 -31 q-45 0 -78 31t-33 82zM334 1610l60 92l192 -125l193 125l59 -92l-252 -195zM695 1315q0 51 31.5 81.5t78.5 30.5t79 -30.5t32 -81.5t-32 -82t-79 -31t-78.5 31t-31.5 82z" />
<glyph unicode="&#x1db;" horiz-adv-x="1417" d="M170 528v891h199v-868q0 -213 94 -309.5t246 -96.5q76 0 138 24t107 73t70 125.5t25 183.5v868h198v-891q0 -119 -31.5 -221t-98 -177t-168 -118t-240.5 -43t-241.5 43t-168.5 118t-97.5 177t-31.5 221zM319 1642q0 51 31.5 82t79.5 31q47 0 78.5 -30.5t31.5 -82.5 q0 -51 -31.5 -81.5t-78.5 -30.5t-79 30.5t-32 81.5zM495 1864l123 106l197 -289l-93 -77zM876 1642q0 51 32 82t79 31q45 0 77.5 -30.5t32.5 -82.5q0 -51 -32.5 -81.5t-77.5 -30.5q-47 0 -79 30.5t-32 81.5z" />
<glyph unicode="&#x1dc;" d="M156 467v598h190v-557q0 -195 61.5 -279t206.5 -84q31 0 64 2.5t61.5 5.5t52 6t33.5 7v899h191v-1034q-66 -16 -173.5 -35t-248.5 -19q-123 0 -207 36t-135 101.5t-73.5 154.5t-22.5 198zM258 1315q0 51 32 81.5t79 30.5t79 -30.5t32 -81.5t-32 -82t-79 -31t-79 31 t-32 82zM355 1642l123 107l196 -289l-92 -78zM693 1315q0 51 31.5 81.5t78.5 30.5q45 0 78 -30.5t33 -81.5t-33 -82t-78 -31q-47 0 -78.5 31t-31.5 82z" />
<glyph unicode="&#x1dd;" horiz-adv-x="1153" d="M109 518v49q0 10 2 19h729q-12 164 -97.5 251t-261.5 87q-100 0 -168.5 -17.5t-103.5 -34.5l-27 160q35 18 122 39t198 21q139 0 240.5 -42t167 -116t97 -176.5t31.5 -220.5q0 -141 -41 -247t-108.5 -175.5t-155.5 -104.5t-180 -35q-213 0 -328.5 135.5t-115.5 407.5z M307 432q-2 -129 64.5 -212t183.5 -83q66 0 116 25.5t83.5 66.5t54 94.5t27.5 108.5h-529z" />
<glyph unicode="&#x1de;" horiz-adv-x="1366" d="M20 0l154 417l140 363l137 329q68 157 141 310h182q74 -154 141 -310l137 -329l140 -363l154 -417h-218l-65 181l-64 181h-643l-129 -362h-207zM414 526h528l-130 345q-65 167 -134 321q-72 -154 -136 -321zM365 1643q0 51 31.5 81.5t78.5 30.5t79 -30.5t32 -81.5 t-32 -82t-79 -31t-78.5 31t-31.5 82zM422 1839v131h520v-131h-520zM778 1643q0 51 32 81.5t79 30.5q45 0 78 -30.5t33 -81.5t-33 -82t-78 -31q-47 0 -79 31t-32 82z" />
<glyph unicode="&#x1df;" horiz-adv-x="1077" d="M92 317q0 88 36 151.5t97.5 102.5t143.5 57.5t172 18.5q29 0 59.5 -3t57.5 -8l49 -9q20 -4 28 -6v53q0 47 -10 93t-36.5 82t-73 57.5t-119.5 21.5q-94 0 -165 -13.5t-106 -27.5l-22 157q37 16 123 32t186 16q115 0 193.5 -30t127 -84t69 -129t20.5 -165v-666l-69 -11 q-44 -7 -99.5 -13t-120 -11.5t-127.5 -5.5q-90 0 -166 18.5t-131 58.5t-86 105.5t-31 157.5zM285 319q0 -102 65.5 -142t177.5 -40q68 0 120 3t87 12v317q-20 10 -66 17.5t-112 7.5q-43 0 -91 -6.5t-88 -26t-66.5 -53.5t-26.5 -89zM226 1315q0 51 31.5 81.5t78.5 30.5 t79 -30.5t32 -81.5t-32 -82t-79 -31t-78.5 31t-31.5 82zM283 1511v131h520v-131h-520zM639 1315q0 51 32 81.5t79 30.5q45 0 78 -30.5t33 -81.5t-33 -82t-78 -31q-47 0 -79 31t-32 82z" />
<glyph unicode="&#x1e0;" horiz-adv-x="1366" d="M20 0l154 417l140 363l137 329q68 157 141 310h182q74 -154 141 -310l137 -329l140 -363l154 -417h-218l-65 181l-64 181h-643l-129 -362h-207zM414 526h528l-130 345q-65 167 -134 321q-72 -154 -136 -321zM422 1839v131h520v-131h-520zM569 1645q0 53 33 84t80 31 t80 -31t33 -84t-33 -84t-80 -31t-80 31t-33 84z" />
<glyph unicode="&#x1e1;" horiz-adv-x="1077" d="M92 317q0 88 36 151.5t97.5 102.5t143.5 57.5t172 18.5q29 0 59.5 -3t57.5 -8l49 -9q20 -4 28 -6v53q0 47 -10 93t-36.5 82t-73 57.5t-119.5 21.5q-94 0 -165 -13.5t-106 -27.5l-22 157q37 16 123 32t186 16q115 0 193.5 -30t127 -84t69 -129t20.5 -165v-666l-69 -11 q-44 -7 -99.5 -13t-120 -11.5t-127.5 -5.5q-90 0 -166 18.5t-131 58.5t-86 105.5t-31 157.5zM285 319q0 -102 65.5 -142t177.5 -40q68 0 120 3t87 12v317q-20 10 -66 17.5t-112 7.5q-43 0 -91 -6.5t-88 -26t-66.5 -53.5t-26.5 -89zM283 1511v131h520v-131h-520zM430 1317 q0 53 33 84t80 31t80 -31t33 -84t-33 -84t-80 -31t-80 31t-33 84z" />
<glyph unicode="&#x1e2;" horiz-adv-x="1923" d="M16 0l229 417l218 369l210 331l206 302h913v-166h-616v-428h542v-161h-542v-498h667v-166h-864v365h-559l-97 -182l-94 -183h-213zM512 526h467v738q-109 -147 -225 -334zM899 1628v147h582v-147h-582z" />
<glyph unicode="&#x1e3;" horiz-adv-x="1767" d="M94 317q0 88 36 151.5t97.5 102.5t143.5 57.5t172 18.5q29 0 59.5 -3t56.5 -8l48 -9q20 -4 28 -6v53q0 47 -10 93t-36.5 82t-73 57.5t-119.5 21.5q-94 0 -165 -13.5t-106 -27.5l-22 157q37 16 122 32t183 16q141 0 224 -48.5t124 -134.5q68 92 160 137.5t192 45.5 q213 0 329 -135.5t116 -407.5q0 -16 -1 -27.5t-1 -21.5v-19h-729q12 -164 97 -251t261 -87q100 0 169 17.5t103 34.5l27 -160q-35 -18 -122 -39t-197 -21q-117 0 -204 28t-153 81q-20 -14 -54 -32.5t-81 -36t-105.5 -29t-127.5 -11.5q-102 0 -183.5 18.5t-138.5 59.5 t-88 106.5t-31 157.5zM287 319q0 -104 66.5 -143t185.5 -39q106 0 167.5 23.5t94.5 46.5q-31 57 -48.5 122.5t-19.5 139.5q-23 10 -65.5 17.5t-108.5 7.5q-43 0 -91 -6.5t-88 -26t-66.5 -53.5t-26.5 -89zM926 635h528q2 129 -64.5 212t-183.5 83q-66 0 -116 -25.5 t-83.5 -66.5t-54 -94.5t-26.5 -108.5zM579 1309v147h582v-147h-582z" />
<glyph unicode="&#x1e4;" horiz-adv-x="1445" d="M123 711q0 178 53 316t144.5 232.5t214 143.5t264.5 49q96 0 172 -12.5t130 -28.5t89 -32.5t47 -24.5l-63 -166q-57 41 -158 65.5t-207 24.5q-109 0 -197 -39t-149.5 -112.5t-95 -179t-33.5 -236.5q0 -127 29.5 -231.5t90 -179.5t149.5 -116t210 -41q86 0 146.5 9.5 t87.5 17.5v229h-226v150h226v196h198v-196h164v-150h-164v-364q-25 -8 -71 -18.5t-106 -20.5t-132 -17.5t-145 -7.5q-150 0 -273 49.5t-211 143.5t-136 231.5t-48 315.5z" />
<glyph unicode="&#x1e5;" horiz-adv-x="1216" d="M109 555q0 117 34.5 214t101 168t163 110.5t217.5 39.5q133 0 232 -19t167 -36v-401h160v-139h-160v-404q0 -246 -127 -356.5t-385 -110.5q-100 0 -189.5 16.5t-154.5 38.5l35 166q57 -23 140 -40t173 -17q170 0 245 67.5t75 215.5v38q-25 -16 -95.5 -41.5t-165.5 -25.5 q-96 0 -181 30.5t-148.5 95t-100 161t-36.5 229.5zM307 553q0 -92 23.5 -157.5t63.5 -108.5t92.5 -63.5t107.5 -20.5q76 0 139.5 21.5t100.5 49.5v218h-230v139h230v266q-29 8 -77 15.5t-130 7.5q-154 0 -237 -100.5t-83 -266.5z" />
<glyph unicode="&#x1e6;" horiz-adv-x="1384" d="M123 711q0 178 54 316t146.5 232.5t216.5 143.5t265 49q96 0 171 -12.5t128 -28.5t87 -32.5t46 -24.5l-63 -166q-59 39 -157.5 64.5t-201.5 25.5q-109 0 -198 -39t-151.5 -112.5t-97 -179t-34.5 -236.5q0 -127 29.5 -231.5t90 -179.5t149.5 -116t210 -41q86 0 146.5 9.5 t87.5 17.5v528h198v-663q-25 -8 -71 -18.5t-106 -20.5t-132 -17.5t-145 -7.5q-150 0 -273 49.5t-211 143.5t-136 231.5t-48 315.5zM496 1812l79 90l199 -180l199 180l80 -90l-279 -293z" />
<glyph unicode="&#x1e7;" horiz-adv-x="1191" d="M109 555q0 117 34.5 214t101 168t163 110.5t217.5 39.5q133 0 232 -19t167 -36v-950q0 -246 -127 -356.5t-385 -110.5q-100 0 -189.5 16.5t-154.5 38.5l35 166q57 -23 140 -40t173 -17q170 0 245 67.5t75 214.5v45q-25 -16 -95.5 -41.5t-165.5 -25.5q-96 0 -181 30.5 t-148.5 95t-100 161t-36.5 229.5zM307 553q0 -92 23.5 -157.5t63.5 -108.5t92.5 -63.5t107.5 -20.5q76 0 139.5 21.5t100.5 49.5v623q-29 8 -77 15.5t-130 7.5q-154 0 -237 -100.5t-83 -266.5zM318 1493l79 90l199 -180l199 180l80 -90l-279 -293z" />
<glyph unicode="&#x1e8;" horiz-adv-x="1296" d="M180 0v1419h199v-626l158 152l170 171l158 165q75 79 126 138h240l-144 -154l-166 -174l-173 -176l-162 -159q88 -61 186 -151.5t192.5 -193t177.5 -209t138 -202.5h-233q-61 96 -141.5 193.5t-169.5 186.5t-180 165t-177 129v-674h-199zM379 1812l79 90l199 -180 l199 180l80 -90l-279 -293z" />
<glyph unicode="&#x1e9;" horiz-adv-x="1077" d="M168 0v1556l190 33v-971l109 109l117 121l108 118l88 99h224l-103 -113l-115 -124l-119 -125l-114 -117q61 -47 130 -117t135.5 -150.5t126 -163.5t99.5 -155h-223q-43 72 -99 146.5t-117.5 143t-125 126t-121.5 96.5v-512h-190zM112 1878l60 92l192 -125l193 125l59 -92 l-252 -195z" />
<glyph unicode="&#x1ea;" horiz-adv-x="1601" d="M123 711q0 182 54 321t147.5 232.5t217.5 140.5t263 47q137 0 259 -47t214 -140.5t146.5 -232.5t54.5 -321q0 -131 -28 -238.5t-79 -193.5t-120.5 -147.5t-153.5 -100.5q-47 -23 -86 -50.5t-70 -60.5q-29 -33 -44 -57.5t-15 -52.5q0 -59 82 -60q14 0 37.5 3t46.5 11 l14 -124q-23 -10 -58.5 -16.5t-76.5 -6.5q-115 0 -170.5 42t-55.5 114q0 47 27 91t62 81l12 12q6 6 14 12h-12q-139 0 -263 47t-217.5 140.5t-147.5 233t-54 321.5zM332 711q0 -129 32.5 -234.5t93 -179.5t147.5 -114t196 -40t194.5 40t146 114t93.5 179.5t33 234.5 t-33 234.5t-93.5 179t-146.5 113.5t-194 40q-109 0 -196 -40t-147.5 -113.5t-93 -179t-32.5 -234.5z" />
<glyph unicode="&#x1eb;" horiz-adv-x="1216" d="M109 532q0 125 36.5 228.5t103 177.5t159 114t200.5 40q109 0 201 -40t158.5 -114t103.5 -177.5t37 -228.5q0 -176 -71.5 -308t-194.5 -193q-88 -45 -152 -111q-29 -33 -44 -57.5t-15 -52.5q0 -59 82 -60q14 0 37.5 3t46.5 11l14 -124q-23 -10 -58.5 -16.5t-76.5 -6.5 q-115 0 -170 42t-55 114q0 47 26.5 91t61.5 81q6 6 16 15t18 15q-102 6 -187 49.5t-146.5 116t-96 171.5t-34.5 220zM307 532q0 -180 81 -285.5t220 -105.5t220 105.5t81 285.5t-80.5 286t-220.5 106q-139 0 -220 -106t-81 -286z" />
<glyph unicode="&#x1ec;" horiz-adv-x="1601" d="M123 711q0 182 54 321t147.5 232.5t217.5 140.5t263 47q137 0 259 -47t214 -140.5t146.5 -232.5t54.5 -321q0 -131 -28 -238.5t-79 -193.5t-120.5 -147.5t-153.5 -100.5q-47 -23 -86 -50.5t-70 -60.5q-29 -33 -44 -57.5t-15 -52.5q0 -59 82 -60q14 0 37.5 3t46.5 11 l14 -124q-23 -10 -58.5 -16.5t-76.5 -6.5q-115 0 -170.5 42t-55.5 114q0 47 27 91t62 81l12 12q6 6 14 12h-12q-139 0 -263 47t-217.5 140.5t-147.5 233t-54 321.5zM332 711q0 -129 32.5 -234.5t93 -179.5t147.5 -114t196 -40t194.5 40t146 114t93.5 179.5t33 234.5 t-33 234.5t-93.5 179t-146.5 113.5t-194 40q-109 0 -196 -40t-147.5 -113.5t-93 -179t-32.5 -234.5zM510 1628v147h582v-147h-582z" />
<glyph unicode="&#x1ed;" horiz-adv-x="1216" d="M109 532q0 125 36.5 228.5t103 177.5t159 114t200.5 40q109 0 201 -40t158.5 -114t103.5 -177.5t37 -228.5q0 -176 -71.5 -308t-194.5 -193q-88 -45 -152 -111q-29 -33 -44 -57.5t-15 -52.5q0 -59 82 -60q14 0 37.5 3t46.5 11l14 -124q-23 -10 -58.5 -16.5t-76.5 -6.5 q-115 0 -170 42t-55 114q0 47 26.5 91t61.5 81q6 6 16 15t18 15q-102 6 -187 49.5t-146.5 116t-96 171.5t-34.5 220zM307 532q0 -180 81 -285.5t220 -105.5t220 105.5t81 285.5t-80.5 286t-220.5 106q-139 0 -220 -106t-81 -286zM317 1309v147h582v-147h-582z" />
<glyph unicode="&#x1ee;" horiz-adv-x="1169" d="M55 72l60 164q23 -12 60.5 -29t84.5 -31t104.5 -24.5t120.5 -10.5q174 0 271.5 59.5t97.5 198.5q0 82 -34 136.5t-92 87t-137 46t-171 13.5h-39v119l107 112l110 123l100 119l80 98h-657v166h909v-119q-31 -45 -78 -104t-104 -124l-119 -130l-119 -127q92 -10 175 -38.5 t144.5 -79t97.5 -126t36 -176.5q0 -111 -42 -191.5t-117 -133t-181.5 -77t-235.5 -24.5q-78 0 -147.5 11.5t-124.5 27t-96 34t-64 30.5zM297 1812l79 90l199 -180l199 180l80 -90l-279 -293z" />
<glyph unicode="&#x1ef;" horiz-adv-x="972" d="M-2 -315l41 163q47 -23 131 -41t180 -18q166 0 254 72.5t88 206.5q0 80 -34.5 130t-91 78.5t-130.5 39t-151 10.5h-35v125l96 112l99 124l90 119q41 56 69 99h-559v160h795v-111q-29 -47 -71 -107l-91 -127q-49 -67 -104 -133l-105 -124q86 -12 163 -39t133 -73 t89 -116.5t33 -171.5q0 -111 -38 -193.5t-108.5 -138t-169 -83t-219.5 -27.5q-113 0 -208 18.5t-146 45.5zM140 1493l79 90l199 -180l199 180l80 -90l-279 -293z" />
<glyph unicode="&#x1f0;" horiz-adv-x="526" d="M-135 -356l24 155q20 -6 47 -10t50 -4q98 0 140 60.5t42 177.5v1042h190v-1040q0 -205 -93 -304.5t-271 -99.5q-25 0 -63.5 6.5t-65.5 16.5zM-10 1493l79 90l199 -180l199 180l80 -90l-279 -293z" />
<glyph unicode="&#x1f1;" horiz-adv-x="2650" d="M180 23v1376q84 20 187.5 27.5t189.5 7.5q174 0 319.5 -44t250 -133.5t162 -225.5t57.5 -320t-57.5 -320.5t-162 -225.5t-250 -133t-319.5 -44q-86 0 -189.5 7.5t-187.5 27.5zM379 168q18 -2 64 -4t130 -2q283 0 422.5 144.5t139.5 404.5t-139.5 404.5t-422.5 144.5 q-84 0 -130 -2.5t-64 -4.5v-1085zM1540 0v133q43 82 101 180l125 201l138 207l143 201l137 180l122 147h-729v170h972v-157l-109 -128l-132 -166l-144 -193l-144 -205q-71 -103 -134.5 -205.5t-114.5 -194.5h799v-170h-1030z" />
<glyph unicode="&#x1f2;" horiz-adv-x="2441" d="M180 23v1376q84 20 187.5 27.5t189.5 7.5q174 0 319.5 -44t250 -133.5t162 -225.5t57.5 -320t-57.5 -320.5t-162 -225.5t-250 -133t-319.5 -44q-86 0 -189.5 7.5t-187.5 27.5zM379 168q18 -2 64 -4t130 -2q283 0 422.5 144.5t139.5 404.5t-139.5 404.5t-422.5 144.5 q-84 0 -130 -2.5t-64 -4.5v-1085zM1546 0v127q49 90 120.5 198.5t150.5 216.5l154 202l130 161h-527v160h768v-143q-43 -47 -113 -134l-152 -190l-162 -219q-81 -115 -142 -219h586v-160h-813z" />
<glyph unicode="&#x1f3;" horiz-adv-x="2187" d="M109 532q0 123 31.5 225.5t93 176.5t150.5 115t204 41q92 0 162.5 -25t105.5 -47v538l191 33v-1558q-66 -18 -168.5 -37t-235.5 -19q-123 0 -221 39t-168 111t-107.5 175t-37.5 232zM307 532q0 -186 92.5 -287.5t245.5 -101.5q78 0 130 7.5t81 15.5v674 q-35 29 -100.5 55.5t-143.5 26.5q-82 0 -140 -30t-95 -82t-53.5 -124t-16.5 -154zM1292 0v127q49 90 120.5 198.5t150.5 216.5l154 202l130 161h-527v160h768v-143q-43 -47 -113 -134l-152 -190l-162 -219q-81 -115 -142 -219h586v-160h-813z" />
<glyph unicode="&#x1f4;" horiz-adv-x="1384" d="M123 711q0 178 54 316t146.5 232.5t216.5 143.5t265 49q96 0 171 -12.5t128 -28.5t87 -32.5t46 -24.5l-63 -166q-59 39 -157.5 64.5t-201.5 25.5q-109 0 -198 -39t-151.5 -112.5t-97 -179t-34.5 -236.5q0 -127 29.5 -231.5t90 -179.5t149.5 -116t210 -41q86 0 146.5 9.5 t87.5 17.5v528h198v-663q-25 -8 -71 -18.5t-106 -20.5t-132 -17.5t-145 -7.5q-150 0 -273 49.5t-211 143.5t-136 231.5t-48 315.5zM647 1593l262 315l123 -121l-289 -280z" />
<glyph unicode="&#x1f5;" horiz-adv-x="1191" d="M109 555q0 117 34.5 214t101 168t163 110.5t217.5 39.5q133 0 232 -19t167 -36v-950q0 -246 -127 -356.5t-385 -110.5q-100 0 -189.5 16.5t-154.5 38.5l35 166q57 -23 140 -40t173 -17q170 0 245 67.5t75 214.5v45q-25 -16 -95.5 -41.5t-165.5 -25.5q-96 0 -181 30.5 t-148.5 95t-100 161t-36.5 229.5zM307 553q0 -92 23.5 -157.5t63.5 -108.5t92.5 -63.5t107.5 -20.5q76 0 139.5 21.5t100.5 49.5v623q-29 8 -77 15.5t-130 7.5q-154 0 -237 -100.5t-83 -266.5zM469 1274l262 315l123 -121l-289 -280z" />
<glyph unicode="&#x1f6;" horiz-adv-x="2172" d="M180 0v1419h199v-594h694v594h199v-889q0 -201 62.5 -294t211.5 -93q150 0 212.5 93.5t62.5 293.5v535h196v-576q0 -113 -20.5 -208t-73.5 -164.5t-144 -108.5t-233 -39q-139 0 -230 39t-145.5 108.5t-76 165t-21.5 207.5v170h-694v-659h-199z" />
<glyph unicode="&#x1f7;" horiz-adv-x="1325" d="M180 -379v1718l87 32t108.5 31t124 22.5t133.5 9.5q281 0 435.5 -134.5t154.5 -392.5q0 -178 -65.5 -316t-179.5 -246.5t-267.5 -191.5t-331.5 -151v-381h-199zM379 188q133 59 248.5 122t200.5 146t134.5 194.5t49.5 264.5q0 166 -101.5 255.5t-275.5 89.5 q-98 0 -159.5 -14.5t-96.5 -26.5v-1031z" />
<glyph unicode="&#x1f8;" horiz-adv-x="1499" d="M180 0v1419h158q96 -102 206 -238l217 -281l203 -284q95 -139 160 -247v1050h195v-1419h-166l-103 170l-126 196l-141 205l-144 202l-139 183l-125 152v-1108h-195zM504 1787l123 121l262 -315l-96 -86z" />
<glyph unicode="&#x1f9;" d="M168 0v1034q66 16 174.5 34.5t249.5 18.5q127 0 211 -35.5t134 -100t70.5 -154.5t20.5 -199v-598h-190v557q0 98 -13.5 168t-44 113t-82 62.5t-127.5 19.5q-31 0 -63.5 -2.5t-62 -5.5t-53 -7l-34.5 -6v-899h-190zM352 1468l123 121l262 -315l-96 -86z" />
<glyph unicode="&#x1fa;" horiz-adv-x="1366" d="M20 0l145 393l133 345l128 313l131 295q-31 25 -49.5 61.5t-18.5 85.5q0 88 56.5 138t134.5 50q76 0 133 -50t57 -138q0 -47 -17 -83t-46 -60l131 -295l128 -314l133 -347l147 -394h-218q-35 92 -65 182l-64 183h-643l-129 -365h-207zM414 526h528l-130 346 q-65 166 -134 320q-72 -154 -136 -320zM504 1810l309 160l57 -149l-323 -123zM582 1493q0 -47 28.5 -74.5t69.5 -27.5t69.5 27.5t28.5 74.5t-28.5 73.5t-69.5 26.5t-69.5 -26.5t-28.5 -73.5z" />
<glyph unicode="&#x1fb;" horiz-adv-x="1077" d="M92 317q0 88 36 151.5t97.5 102.5t143.5 57.5t172 18.5q29 0 59.5 -3t57.5 -8l49 -9q20 -4 28 -6v53q0 47 -10 93t-36.5 82t-73 57.5t-119.5 21.5q-94 0 -165 -13.5t-106 -27.5l-22 157q37 16 123 32t186 16q115 0 193.5 -30t127 -84t69 -129t20.5 -165v-666l-69 -11 q-44 -7 -99.5 -13t-120 -11.5t-127.5 -5.5q-90 0 -166 18.5t-131 58.5t-86 105.5t-31 157.5zM285 319q0 -102 65.5 -142t177.5 -40q68 0 120 3t87 12v317q-20 10 -66 17.5t-112 7.5q-43 0 -91 -6.5t-88 -26t-66.5 -53.5t-26.5 -89zM353 1366q0 88 56 138t134 50 q76 0 133.5 -50t57.5 -138t-57.5 -138t-133.5 -50q-78 0 -134 50t-56 138zM367 1704l309 160l58 -150l-324 -123zM445 1366q0 -47 28.5 -74.5t69.5 -27.5t69.5 27.5t28.5 74.5t-28.5 73.5t-69.5 26.5t-69.5 -26.5t-28.5 -73.5z" />
<glyph unicode="&#x1fc;" horiz-adv-x="1923" d="M16 0l229 417l218 369l210 331l206 302h913v-166h-616v-428h542v-161h-542v-498h667v-166h-864v365h-559l-97 -182l-94 -183h-213zM512 526h467v738q-109 -147 -225 -334zM1032 1593l262 315l123 -121l-289 -280z" />
<glyph unicode="&#x1fd;" horiz-adv-x="1767" d="M94 317q0 88 36 151.5t97.5 102.5t143.5 57.5t172 18.5q29 0 59.5 -3t56.5 -8l48 -9q20 -4 28 -6v53q0 47 -10 93t-36.5 82t-73 57.5t-119.5 21.5q-94 0 -165 -13.5t-106 -27.5l-22 157q37 16 122 32t183 16q141 0 224 -48.5t124 -134.5q68 92 160 137.5t192 45.5 q213 0 329 -135.5t116 -407.5q0 -16 -1 -27.5t-1 -21.5v-19h-729q12 -164 97 -251t261 -87q100 0 169 17.5t103 34.5l27 -160q-35 -18 -122 -39t-197 -21q-117 0 -204 28t-153 81q-20 -14 -54 -32.5t-81 -36t-105.5 -29t-127.5 -11.5q-102 0 -183.5 18.5t-138.5 59.5 t-88 106.5t-31 157.5zM287 319q0 -104 66.5 -143t185.5 -39q106 0 167.5 23.5t94.5 46.5q-31 57 -48.5 122.5t-19.5 139.5q-23 10 -65.5 17.5t-108.5 7.5q-43 0 -91 -6.5t-88 -26t-66.5 -53.5t-26.5 -89zM926 635h528q2 129 -64.5 212t-183.5 83q-66 0 -116 -25.5 t-83.5 -66.5t-54 -94.5t-26.5 -108.5zM733 1274l262 315l123 -121l-289 -280z" />
<glyph unicode="&#x1fe;" horiz-adv-x="1601" d="M123 711q0 182 54 321t147.5 232.5t217.5 140.5t263 47q217 0 385 -115l121 158l127 -94l-131 -170q80 -92 126 -222t46 -298q0 -182 -54.5 -321.5t-146.5 -233t-214 -140.5t-259 -47q-109 0 -206 28t-181 83l-119 -154l-127 94l127 164q-82 92 -129 223.5t-47 303.5z M332 711q0 -223 90 -367l653 846q-113 88 -274 88q-109 0 -196 -40t-147.5 -113.5t-93 -179t-32.5 -234.5zM530 227q109 -84 271 -84q109 0 194.5 40t146 114t93.5 179.5t33 234.5q0 109 -22.5 197.5t-63.5 160.5zM663 1593l262 315l123 -121l-289 -280z" />
<glyph unicode="&#x1ff;" horiz-adv-x="1216" d="M109 532q0 125 36.5 228.5t103 177.5t159 114t200.5 40q80 0 150.5 -22.5t130.5 -63.5l100 131l109 -82l-111 -144q57 -72 89 -167t32 -212q0 -127 -37 -229t-103.5 -176t-158.5 -114t-201 -40q-162 0 -280 84l-101 -131l-108 82l110 144q-57 72 -88.5 167.5t-31.5 212.5 zM305 532q0 -133 43 -225l434 561q-74 57 -174 58q-141 0 -222 -106t-81 -288zM434 195q70 -55 174 -56q141 0 222 105.5t81 287.5q0 127 -45 224zM471 1274l262 315l123 -121l-289 -280z" />
<glyph unicode="&#x200;" horiz-adv-x="1366" d="M20 0l154 417l140 363l137 329q68 157 141 310h182q74 -154 141 -310l137 -329l140 -363l154 -417h-218l-65 181l-64 181h-643l-129 -362h-207zM414 526h528l-130 345q-65 167 -134 321q-72 -154 -136 -321zM262 1794l115 114l235 -327l-98 -74zM600 1794l115 114 l235 -327l-98 -74z" />
<glyph unicode="&#x201;" horiz-adv-x="1077" d="M92 317q0 88 36 151.5t97.5 102.5t143.5 57.5t172 18.5q29 0 59.5 -3t57.5 -8l49 -9q20 -4 28 -6v53q0 47 -10 93t-36.5 82t-73 57.5t-119.5 21.5q-94 0 -165 -13.5t-106 -27.5l-22 157q37 16 123 32t186 16q115 0 193.5 -30t127 -84t69 -129t20.5 -165v-666l-69 -11 q-44 -7 -99.5 -13t-120 -11.5t-127.5 -5.5q-90 0 -166 18.5t-131 58.5t-86 105.5t-31 157.5zM285 319q0 -102 65.5 -142t177.5 -40q68 0 120 3t87 12v317q-20 10 -66 17.5t-112 7.5q-43 0 -91 -6.5t-88 -26t-66.5 -53.5t-26.5 -89zM113 1475l115 114l235 -327l-98 -74z M451 1475l115 114l235 -327l-98 -74z" />
<glyph unicode="&#x202;" horiz-adv-x="1366" d="M20 0l154 417l140 363l137 329q68 157 141 310h182q74 -154 141 -310l137 -329l140 -363l154 -417h-218l-65 181l-64 181h-643l-129 -362h-207zM414 526h528l-130 345q-65 167 -134 321q-72 -154 -136 -321zM402 1568q-2 68 18.5 121t58 89t88 55.5t107.5 19.5 t107.5 -19.5t88.5 -55.5t58.5 -89t18.5 -121h-123q-2 23 -9.5 49.5t-24 48t-45 36t-71.5 14.5t-71.5 -14.5t-45 -36t-23.5 -48t-9 -49.5h-123z" />
<glyph unicode="&#x203;" horiz-adv-x="1077" d="M92 317q0 88 36 151.5t97.5 102.5t143.5 57.5t172 18.5q29 0 59.5 -3t57.5 -8l49 -9q20 -4 28 -6v53q0 47 -10 93t-36.5 82t-73 57.5t-119.5 21.5q-94 0 -165 -13.5t-106 -27.5l-22 157q37 16 123 32t186 16q115 0 193.5 -30t127 -84t69 -129t20.5 -165v-666l-69 -11 q-44 -7 -99.5 -13t-120 -11.5t-127.5 -5.5q-90 0 -166 18.5t-131 58.5t-86 105.5t-31 157.5zM285 319q0 -102 65.5 -142t177.5 -40q68 0 120 3t87 12v317q-20 10 -66 17.5t-112 7.5q-43 0 -91 -6.5t-88 -26t-66.5 -53.5t-26.5 -89zM267 1249q-2 68 18.5 121t58 89t88 55.5 t107.5 19.5t107.5 -19.5t88.5 -55.5t58.5 -89t18.5 -121h-123q-2 23 -9.5 49.5t-24 48t-45 36t-71.5 14.5t-71.5 -14.5t-45 -36t-23.5 -48t-9 -49.5h-123z" />
<glyph unicode="&#x204;" horiz-adv-x="1177" d="M180 0v1419h867v-170h-668v-422h594v-165h-594v-492h719v-170h-918zM229 1794l115 114l235 -327l-98 -74zM567 1794l115 114l235 -327l-98 -74z" />
<glyph unicode="&#x205;" horiz-adv-x="1153" d="M109 530q0 141 40.5 247t108.5 175.5t156 104.5t180 35q215 0 329.5 -134.5t114.5 -408.5v-32q0 -19 -2 -36h-729q12 -166 96 -252t263 -86q100 0 168.5 17.5t103.5 34.5l27 -160q-35 -18 -122 -39t-198 -21q-139 0 -240.5 42t-167 116t-97 175t-31.5 222zM311 635h529 q2 129 -64.5 212t-183.5 83q-66 0 -116 -25.5t-85 -66.5t-54.5 -94.5t-25.5 -108.5zM160 1475l115 114l235 -327l-98 -74zM498 1475l115 114l235 -327l-98 -74z" />
<glyph unicode="&#x206;" horiz-adv-x="1177" d="M180 0v1419h867v-170h-668v-422h594v-165h-594v-492h719v-170h-918zM340 1568q-2 68 18.5 121t58 89t88 55.5t107.5 19.5t107.5 -19.5t88.5 -55.5t58.5 -89t18.5 -121h-123q-2 23 -9.5 49.5t-24 48t-45 36t-71.5 14.5t-71.5 -14.5t-45 -36t-23.5 -48t-9 -49.5h-123z" />
<glyph unicode="&#x207;" horiz-adv-x="1153" d="M109 530q0 141 40.5 247t108.5 175.5t156 104.5t180 35q215 0 329.5 -134.5t114.5 -408.5v-32q0 -19 -2 -36h-729q12 -166 96 -252t263 -86q100 0 168.5 17.5t103.5 34.5l27 -160q-35 -18 -122 -39t-198 -21q-139 0 -240.5 42t-167 116t-97 175t-31.5 222zM311 635h529 q2 129 -64.5 212t-183.5 83q-66 0 -116 -25.5t-85 -66.5t-54.5 -94.5t-25.5 -108.5zM318 1249q-2 68 18.5 121t58 89t88 55.5t107.5 19.5t107.5 -19.5t88.5 -55.5t58.5 -89t18.5 -121h-123q-2 23 -9.5 49.5t-24 48t-45 36t-71.5 14.5t-71.5 -14.5t-45 -36t-23.5 -48 t-9 -49.5h-123z" />
<glyph unicode="&#x208;" horiz-adv-x="559" d="M180 0v1419h199v-1419h-199zM-148 1794l115 114l235 -327l-98 -74zM190 1794l115 114l235 -327l-98 -74z" />
<glyph unicode="&#x209;" horiz-adv-x="526" d="M168 0v1065h190v-1065h-190zM-164 1475l115 114l235 -327l-98 -74zM174 1475l115 114l235 -327l-98 -74z" />
<glyph unicode="&#x20a;" horiz-adv-x="559" d="M180 0v1419h199v-1419h-199zM13 1568q-2 68 18.5 121t58 89t88 55.5t107.5 19.5t107.5 -19.5t88.5 -55.5t58.5 -89t18.5 -121h-123q-2 23 -9.5 49.5t-24 48t-45 36t-71.5 14.5t-71.5 -14.5t-45 -36t-23.5 -48t-9 -49.5h-123z" />
<glyph unicode="&#x20b;" horiz-adv-x="526" d="M168 0v1065h190v-1065h-190zM-4 1249q-2 68 18.5 121t58 89t88 55.5t107.5 19.5t107.5 -19.5t88.5 -55.5t58.5 -89t18.5 -121h-123q-2 23 -9.5 49.5t-24 48t-45 36t-71.5 14.5t-71.5 -14.5t-45 -36t-23.5 -48t-9 -49.5h-123z" />
<glyph unicode="&#x20c;" horiz-adv-x="1601" d="M123 711q0 182 54 321t147.5 232.5t217.5 140.5t263 47q137 0 259 -47t214 -140.5t146.5 -232.5t54.5 -321t-54.5 -321.5t-146.5 -233t-214 -140.5t-259 -47q-139 0 -263 47t-217.5 140.5t-147.5 233t-54 321.5zM332 711q0 -129 32.5 -234.5t93 -179.5t147.5 -114 t196 -40t194.5 40t146 114t93.5 179.5t33 234.5t-33 234.5t-93.5 179t-146.5 113.5t-194 40q-109 0 -196 -40t-147.5 -113.5t-93 -179t-32.5 -234.5zM371 1794l115 114l235 -327l-98 -74zM709 1794l115 114l235 -327l-98 -74z" />
<glyph unicode="&#x20d;" horiz-adv-x="1216" d="M109 532q0 125 36.5 228.5t103 177.5t159 114t200.5 40q109 0 201 -40t158.5 -114t103.5 -177.5t37 -228.5q0 -127 -37 -229t-103.5 -176t-158.5 -114t-201 -40t-201 40t-158.5 114t-103 176t-36.5 229zM307 532q0 -180 81 -285.5t220 -105.5t220 105.5t81 285.5 t-80.5 286t-220.5 106q-139 0 -220 -106t-81 -286zM178 1475l115 114l235 -327l-98 -74zM516 1475l115 114l235 -327l-98 -74z" />
<glyph unicode="&#x20e;" horiz-adv-x="1601" d="M123 711q0 182 54 321t147.5 232.5t217.5 140.5t263 47q137 0 259 -47t214 -140.5t146.5 -232.5t54.5 -321t-54.5 -321.5t-146.5 -233t-214 -140.5t-259 -47q-139 0 -263 47t-217.5 140.5t-147.5 233t-54 321.5zM332 711q0 -129 32.5 -234.5t93 -179.5t147.5 -114 t196 -40t194.5 40t146 114t93.5 179.5t33 234.5t-33 234.5t-93.5 179t-146.5 113.5t-194 40q-109 0 -196 -40t-147.5 -113.5t-93 -179t-32.5 -234.5zM529 1568q-2 68 18.5 121t58 89t88 55.5t107.5 19.5t107.5 -19.5t88.5 -55.5t58.5 -89t18.5 -121h-123q-2 23 -9.5 49.5 t-24 48t-45 36t-71.5 14.5t-71.5 -14.5t-45 -36t-23.5 -48t-9 -49.5h-123z" />
<glyph unicode="&#x20f;" horiz-adv-x="1216" d="M109 532q0 125 36.5 228.5t103 177.5t159 114t200.5 40q109 0 201 -40t158.5 -114t103.5 -177.5t37 -228.5q0 -127 -37 -229t-103.5 -176t-158.5 -114t-201 -40t-201 40t-158.5 114t-103 176t-36.5 229zM307 532q0 -180 81 -285.5t220 -105.5t220 105.5t81 285.5 t-80.5 286t-220.5 106q-139 0 -220 -106t-81 -286zM336 1249q-2 68 18.5 121t58 89t88 55.5t107.5 19.5t107.5 -19.5t88.5 -55.5t58.5 -89t18.5 -121h-123q-2 23 -9.5 49.5t-24 48t-45 36t-71.5 14.5t-71.5 -14.5t-45 -36t-23.5 -48t-9 -49.5h-123z" />
<glyph unicode="&#x210;" horiz-adv-x="1296" d="M180 0v1399q84 20 187.5 27.5t189.5 7.5q299 0 455.5 -113t156.5 -336q0 -141 -74.5 -241.5t-220.5 -149.5l83 -108q50 -67 103.5 -147.5t106 -168.5t88.5 -170h-217q-41 78 -89 158t-97 152.5t-97 135.5l-87 111q-27 -2 -55 -2h-56h-178v-555h-199zM379 719h141 q102 0 184 10t138.5 39t87.5 81t31 138q0 80 -31 133.5t-83 84t-123 43t-151 12.5q-127 0 -194 -7v-534zM176 1794l115 114l235 -327l-98 -74zM514 1794l115 114l235 -327l-98 -74z" />
<glyph unicode="&#x211;" horiz-adv-x="798" d="M168 0v1020q68 25 168 46t225 21q25 0 56.5 -3t62.5 -8t56.5 -10t37.5 -9l-33 -166q-23 8 -75 19.5t-134 11.5q-53 0 -105 -11.5l-69 -15.5v-895h-190zM45 1475l115 114l235 -327l-98 -74zM383 1475l115 114l235 -327l-98 -74z" />
<glyph unicode="&#x212;" horiz-adv-x="1296" d="M180 0v1399q84 20 187.5 27.5t189.5 7.5q299 0 455.5 -113t156.5 -336q0 -141 -74.5 -241.5t-220.5 -149.5l83 -108q50 -67 103.5 -147.5t106 -168.5t88.5 -170h-217q-41 78 -89 158t-97 152.5t-97 135.5l-87 111q-27 -2 -55 -2h-56h-178v-555h-199zM379 719h141 q102 0 184 10t138.5 39t87.5 81t31 138q0 80 -31 133.5t-83 84t-123 43t-151 12.5q-127 0 -194 -7v-534zM334 1568q-2 68 18.5 121t58 89t88 55.5t107.5 19.5t107.5 -19.5t88.5 -55.5t58.5 -89t18.5 -121h-123q-2 23 -9.5 49.5t-24 48t-45 36t-71.5 14.5t-71.5 -14.5 t-45 -36t-23.5 -48t-9 -49.5h-123z" />
<glyph unicode="&#x213;" horiz-adv-x="798" d="M168 0v1020q68 25 168 46t225 21q25 0 56.5 -3t62.5 -8t56.5 -10t37.5 -9l-33 -166q-23 8 -75 19.5t-134 11.5q-53 0 -105 -11.5l-69 -15.5v-895h-190zM201 1249q-2 68 18.5 121t58 89t88 55.5t107.5 19.5t107.5 -19.5t88.5 -55.5t58.5 -89t18.5 -121h-123 q-2 23 -9.5 49.5t-24 48t-45 36t-71.5 14.5t-71.5 -14.5t-45 -36t-23.5 -48t-9 -49.5h-123z" />
<glyph unicode="&#x214;" horiz-adv-x="1417" d="M170 528v891h199v-868q0 -213 94 -309.5t246 -96.5q76 0 138 24t107 73t70 125.5t25 183.5v868h198v-891q0 -119 -31.5 -221t-98 -177t-168 -118t-240.5 -43t-241.5 43t-168.5 118t-97.5 177t-31.5 221zM278 1794l115 114l235 -327l-98 -74zM616 1794l115 114l235 -327 l-98 -74z" />
<glyph unicode="&#x215;" d="M156 467v598h190v-557q0 -195 61.5 -279t206.5 -84q31 0 64 2.5t61.5 5.5t52 6t33.5 7v899h191v-1034q-66 -16 -173.5 -35t-248.5 -19q-123 0 -207 36t-135 101.5t-73.5 154.5t-22.5 198zM156 1475l115 114l235 -327l-98 -74zM494 1475l115 114l235 -327l-98 -74z" />
<glyph unicode="&#x216;" horiz-adv-x="1417" d="M170 528v891h199v-868q0 -213 94 -309.5t246 -96.5q76 0 138 24t107 73t70 125.5t25 183.5v868h198v-891q0 -119 -31.5 -221t-98 -177t-168 -118t-240.5 -43t-241.5 43t-168.5 118t-97.5 177t-31.5 221zM436 1568q-2 68 18.5 121t58 89t88 55.5t107.5 19.5t107.5 -19.5 t88.5 -55.5t58.5 -89t18.5 -121h-123q-2 23 -9.5 49.5t-24 48t-45 36t-71.5 14.5t-71.5 -14.5t-45 -36t-23.5 -48t-9 -49.5h-123z" />
<glyph unicode="&#x217;" d="M156 467v598h190v-557q0 -195 61.5 -279t206.5 -84q31 0 64 2.5t61.5 5.5t52 6t33.5 7v899h191v-1034q-66 -16 -173.5 -35t-248.5 -19q-123 0 -207 36t-135 101.5t-73.5 154.5t-22.5 198zM314 1249q-2 68 18.5 121t58 89t88 55.5t107.5 19.5t107.5 -19.5t88.5 -55.5 t58.5 -89t18.5 -121h-123q-2 23 -9.5 49.5t-24 48t-45 36t-71.5 14.5t-71.5 -14.5t-45 -36t-23.5 -48t-9 -49.5h-123z" />
<glyph unicode="&#x218;" horiz-adv-x="1097" d="M72 70l59 163q47 -27 143.5 -59.5t235.5 -32.5q311 0 311 213q0 66 -27.5 112t-74.5 80t-107.5 58.5t-128.5 48.5q-78 27 -147.5 61t-120.5 80t-81 109.5t-30 153.5q0 186 127 290.5t351 104.5q129 0 234.5 -27.5t154.5 -60.5l-64 -162q-43 27 -128 52.5t-197 25.5 q-57 0 -106.5 -12.5t-86.5 -37t-58.5 -62.5t-21.5 -89q0 -57 22.5 -96t63.5 -68.5t95.5 -54t119.5 -49.5q92 -37 169 -74t133.5 -88t87 -121.5t30.5 -171.5q0 -186 -136 -286.5t-384 -100.5q-84 0 -154.5 11.5t-126 27t-95 33t-62.5 29.5zM326 -262q31 0 56.5 4t42 17.5 t25.5 40t9 71.5v27h182q2 -10 2 -24v-19q0 -66 -19 -111t-52 -73.5t-77 -42t-93 -13.5q-27 0 -48.5 2t-27.5 6v115z" />
<glyph unicode="&#x219;" horiz-adv-x="921" d="M86 35l35 164l104.5 -37t190.5 -25q117 0 173 31t56 98q0 70 -55 111t-182 92l-118 50.5t-97.5 60t-65.5 84t-25 120.5q0 141 104.5 224.5t285.5 83.5q45 0 90 -5.5t84 -12.5t68.5 -15t45.5 -15l-35 -163q-31 16 -96 33.5t-157 17.5q-80 0 -139.5 -32t-59.5 -99 q0 -35 13 -61.5t41 -48t69 -40t98 -39.5q76 -29 135.5 -56.5t101.5 -64t64.5 -89t22.5 -128.5q0 -147 -110 -223t-312 -76q-141 0 -221 24t-109 36zM221 -262q31 0 56.5 4t42 17.5t25.5 40t9 71.5v27h182q2 -10 2 -24v-19q0 -66 -19 -111t-52 -73.5t-77 -42t-93 -13.5 q-27 0 -48.5 2t-27.5 6v115z" />
<glyph unicode="&#x21a;" horiz-adv-x="1165" d="M37 1247v172h1091v-172h-446v-1247h-199v1247h-446zM364 -262q31 0 56.5 4t42 17.5t25.5 40t9 71.5v27h182q2 -10 2 -24v-19q0 -66 -19 -111t-52 -73.5t-77 -42t-93 -13.5q-27 0 -48.5 2t-27.5 6v115z" />
<glyph unicode="&#x21b;" horiz-adv-x="831" d="M156 412v950l190 33v-330h404v-160h-404v-491q0 -80 12.5 -132.5t37 -82t61.5 -42t86 -12.5q86 0 138 19.5t73 28.5l37 -158q-29 -14 -101 -36t-164 -22q-109 0 -179.5 28t-113.5 83t-60 136.5t-17 187.5zM258 -262q31 0 56.5 4t42 17.5t25.5 40t9 71.5v27h182 q2 -10 2 -24v-19q0 -66 -19 -111t-52 -73.5t-77 -42t-93 -13.5q-27 0 -48.5 2t-27.5 6v115z" />
<glyph unicode="&#x21c;" horiz-adv-x="1103" d="M37 1364q49 33 155.5 59.5t235.5 26.5q111 0 203 -25.5t158.5 -81t104.5 -140.5t38 -204q0 -55 -18.5 -110t-52.5 -104.5t-85 -90.5t-114 -67q156 -47 242.5 -164t86.5 -264q0 -164 -68.5 -274.5t-182 -178.5t-261 -96.5t-307.5 -28.5q-23 0 -61.5 1t-61.5 5l12 172 q16 -2 46 -3t59 -1q117 0 227.5 17.5t196.5 62.5t139 120t53 191q0 102 -46 169t-113.5 106t-147.5 54t-147 15h-78v160h61q82 0 157 18.5t132 56.5t91 96.5t34 135.5q0 135 -79 209t-220 74q-113 0 -198 -25.5t-128 -52.5z" />
<glyph unicode="&#x21d;" horiz-adv-x="901" d="M29 -217q51 2 114.5 8t128 18.5t127 33t110.5 55t77.5 85t29.5 119.5q0 78 -39.5 123t-96 68.5t-120 31t-110.5 7.5h-25v157q66 0 128.5 12.5t110.5 40t76.5 72.5t28.5 111q0 98 -60 152.5t-171 54.5q-92 0 -168 -21.5t-107 -38.5l-34 164q16 6 49 16.5t76 18.5t90 14.5 t94 6.5q90 0 168 -19.5t134 -64.5t89 -114t33 -167q0 -47 -16.5 -91t-46 -84t-71.5 -71.5t-91 -52.5q66 -14 117 -45t85.5 -74t52 -93t17.5 -105q0 -143 -69.5 -237.5t-180 -150t-248 -79t-270.5 -23.5z" />
<glyph unicode="&#x21e;" horiz-adv-x="1452" d="M180 0v1419h199v-592h694v592h199v-1419h-199v655h-694v-655h-199zM447 1812l79 90l199 -180l199 180l80 -90l-279 -293z" />
<glyph unicode="&#x21f;" horiz-adv-x="1177" d="M168 0v1556l190 33v-545q53 20 113.5 31.5t120.5 11.5q127 0 211 -35.5t134 -100t70.5 -154.5t20.5 -199v-598h-190v557q0 98 -13.5 168t-44 113t-82 62.5t-127.5 19.5q-31 0 -63.5 -4.5t-62 -9.5t-53 -11t-34.5 -10v-885h-190zM112 1878l60 92l192 -125l193 125l59 -92 l-252 -195z" />
<glyph unicode="&#x220;" horiz-adv-x="1392" d="M180 0v1382q41 12 97.5 23.5t123 22t140 16.5t151.5 6q147 0 247.5 -42t164 -118t91.5 -180t28 -227v-1262h-201v1210q0 233 -84 339t-268 106q-37 0 -78 -2t-80 -6t-74 -10.5t-57 -12.5v-1245h-201z" />
<glyph unicode="&#x221;" horiz-adv-x="1497" d="M109 532q0 123 31.5 225.5t93 176.5t150.5 115t204 41q92 0 162.5 -25t105.5 -47v538l191 33v-1442q41 29 86 44.5t98 15.5q61 0 111.5 -23.5t86 -63.5t55 -93.5t19.5 -110.5q0 -51 -17.5 -103.5t-54 -95.5t-94 -69.5t-137.5 -26.5q-117 0 -190.5 48t-110.5 132 l-156 -186l-98 86l215 260q-2 14 -2 29v30q-47 -16 -104.5 -27t-110.5 -11q-123 0 -221 37.5t-168 108.5t-107.5 173t-37.5 231zM307 532q0 -186 92.5 -284t245.5 -98q78 0 130 11t81 19v660q-35 29 -100.5 55.5t-143.5 26.5q-82 0 -140 -30t-95 -82t-53.5 -124t-16.5 -154z M1047 -18v-52q0 -74 40.5 -118.5t112.5 -44.5t110 44t38 105t-37 104t-109 43q-51 0 -85.5 -22t-69.5 -59z" />
<glyph unicode="&#x222;" horiz-adv-x="1380" d="M104 422q0 74 21.5 131t60.5 101t90.5 76t112.5 50q-98 35 -144 121t-46 203q0 98 9 167.5t25 147.5h193q-12 -72 -22.5 -143.5t-10.5 -142.5q0 -137 71 -210t226 -73q156 0 226.5 72.5t70.5 210.5q0 72 -10 143.5t-23 142.5h193q16 -78 25.5 -147.5t9.5 -167.5 q0 -117 -46 -203t-145 -121q59 -18 111.5 -50t90.5 -76t60.5 -102t22.5 -130q0 -201 -137.5 -316.5t-446.5 -115.5q-158 0 -268.5 29.5t-182 86t-104.5 136.5t-33 180zM311 422q0 -72 31 -123t83 -83t120.5 -46t144.5 -14t144.5 14t121 46t83 83t30.5 123q0 70 -27.5 120 t-79 82.5t-121 47t-151.5 14.5q-84 0 -152.5 -14.5t-119.5 -47t-79 -82.5t-28 -120z" />
<glyph unicode="&#x223;" horiz-adv-x="1218" d="M111 481q0 80 19.5 148.5t53 125t78.5 98.5t96 67q-80 35 -129 125t-49 206q0 86 9.5 169t21.5 169h186q-12 -72 -19 -144.5t-7 -144.5q0 -166 60.5 -239.5t178.5 -73.5q117 0 177.5 74t60.5 239q0 72 -7 145t-20 144h187q12 -86 21 -169t9 -169q0 -117 -49 -207 t-129 -124q51 -25 96 -67t79 -98.5t53.5 -125t19.5 -148.5q0 -115 -37 -208t-103.5 -159.5t-157.5 -103.5t-200 -37t-201 37t-158.5 103.5t-103 159.5t-36.5 208zM309 481q0 -158 81 -250t220 -92t220 92.5t81 249.5q0 158 -80.5 250t-220.5 92q-139 0 -220 -92t-81 -250z " />
<glyph unicode="&#x224;" horiz-adv-x="1181" d="M72 0v133q43 82 101 180l125 202l138 208l143 201l137 181q67 85 124 148h-731v166h972v-157q-72 -78 -173 -207l-210 -281q-109 -152 -212 -311.5t-177 -296.5h793v-166q0 -94 -12.5 -166t-45 -120t-92 -72.5t-151.5 -24.5q-29 0 -67 5t-60 11l18 150q16 -6 44 -8t44 -2 q76 0 103.5 50t27.5 142v35h-839z" />
<glyph unicode="&#x225;" horiz-adv-x="972" d="M78 0v127q49 90 120.5 198.5t150.5 216.5l154 202l130 161h-527v160h768v-143q-43 -47 -113 -134l-152 -190l-162 -219q-81 -115 -142 -219h586v-160q0 -88 -10.5 -158.5t-40 -121t-85 -77t-145.5 -26.5q-29 0 -65.5 5t-59.5 11l17 140q12 -4 40.5 -7.5t45.5 -3.5 q78 0 104.5 51.5t26.5 143.5v43h-641z" />
<glyph unicode="&#x226;" horiz-adv-x="1366" d="M20 0l154 417l140 363l137 329q68 157 141 310h182q74 -154 141 -310l137 -329l140 -363l154 -417h-218l-65 181l-64 181h-643l-129 -362h-207zM414 526h528l-130 345q-65 167 -134 321q-72 -154 -136 -321zM559 1701q0 57 36 91t87 34t87 -33.5t36 -91.5q0 -57 -36 -91 t-87 -34t-87 34t-36 91z" />
<glyph unicode="&#x227;" horiz-adv-x="1077" d="M92 317q0 88 36 151.5t97.5 102.5t143.5 57.5t172 18.5q29 0 59.5 -3t57.5 -8l49 -9q20 -4 28 -6v53q0 47 -10 93t-36.5 82t-73 57.5t-119.5 21.5q-94 0 -165 -13.5t-106 -27.5l-22 157q37 16 123 32t186 16q115 0 193.5 -30t127 -84t69 -129t20.5 -165v-666l-69 -11 q-44 -7 -99.5 -13t-120 -11.5t-127.5 -5.5q-90 0 -166 18.5t-131 58.5t-86 105.5t-31 157.5zM285 319q0 -102 65.5 -142t177.5 -40q68 0 120 3t87 12v317q-20 10 -66 17.5t-112 7.5q-43 0 -91 -6.5t-88 -26t-66.5 -53.5t-26.5 -89zM420 1382q0 57 36 91t87 34t87 -33.5 t36 -91.5q0 -57 -36 -91t-87 -34t-87 34t-36 91z" />
<glyph unicode="&#x228;" horiz-adv-x="1177" d="M180 0v1419h867v-170h-668v-422h594v-165h-594v-492h719v-170h-373l-20.5 -38.5t-16.5 -37.5q59 -29 86 -62.5t27 -99.5q0 -23 -10.5 -49t-35 -48.5t-65.5 -37t-100 -14.5q-53 0 -97 8t-71 19l22 116q25 -8 52.5 -14t62.5 -6q74 0 74 47q0 23 -22.5 38t-63.5 32l-15 6 q10 29 28 69.5t34 71.5h-414z" />
<glyph unicode="&#x229;" horiz-adv-x="1153" d="M109 530q0 141 40.5 247t108.5 175.5t156 104.5t180 35q213 0 328.5 -135.5t115.5 -407.5q0 -16 -1 -27.5t-1 -21.5v-19h-729q12 -164 97 -251t262 -87q100 0 168.5 17.5t103.5 34.5l27 -160q-35 -16 -112 -35.5t-177 -24.5q-8 -14 -14.5 -27.5t-10.5 -23.5 q59 -29 86 -62.5t27 -99.5q0 -23 -10.5 -49t-35 -48.5t-65.5 -37t-100 -14.5q-53 0 -97 8t-71 19l23 116q25 -8 52 -14t62 -6q74 0 74 47q0 23 -22.5 38t-63.5 32l-14 6q8 25 22 59.5t29 63.5q-115 14 -197 60t-136 118.5t-79.5 166.5t-25.5 203zM311 635h529 q2 129 -64.5 212t-183.5 83q-66 0 -116 -25.5t-84 -66.5t-54.5 -94.5t-26.5 -108.5z" />
<glyph unicode="&#x22a;" horiz-adv-x="1601" d="M123 711q0 182 54 321t147.5 232.5t217.5 140.5t263 47q137 0 259 -47t214 -140.5t146.5 -232.5t54.5 -321t-54.5 -321.5t-146.5 -233t-214 -140.5t-259 -47q-139 0 -263 47t-217.5 140.5t-147.5 233t-54 321.5zM332 711q0 -129 32.5 -234.5t93 -179.5t147.5 -114 t196 -40t194.5 40t146 114t93.5 179.5t33 234.5t-33 234.5t-93.5 179t-146.5 113.5t-194 40q-109 0 -196 -40t-147.5 -113.5t-93 -179t-32.5 -234.5zM484 1643q0 51 31.5 81.5t78.5 30.5t79 -30.5t32 -81.5t-32 -82t-79 -31t-78.5 31t-31.5 82zM541 1839v131h520v-131h-520z M897 1643q0 51 32 81.5t79 30.5q45 0 78 -30.5t33 -81.5t-33 -82t-78 -31q-47 0 -79 31t-32 82z" />
<glyph unicode="&#x22b;" horiz-adv-x="1216" d="M109 532q0 125 36.5 228.5t103 177.5t159 114t200.5 40q109 0 201 -40t158.5 -114t103.5 -177.5t37 -228.5q0 -127 -37 -229t-103.5 -176t-158.5 -114t-201 -40t-201 40t-158.5 114t-103 176t-36.5 229zM307 532q0 -180 81 -285.5t220 -105.5t220 105.5t81 285.5 t-80.5 286t-220.5 106q-139 0 -220 -106t-81 -286zM291 1315q0 51 31.5 81.5t78.5 30.5t79 -30.5t32 -81.5t-32 -82t-79 -31t-78.5 31t-31.5 82zM348 1511v131h520v-131h-520zM704 1315q0 51 32 81.5t79 30.5q45 0 78 -30.5t33 -81.5t-33 -82t-78 -31q-47 0 -79 31t-32 82z " />
<glyph unicode="&#x22c;" horiz-adv-x="1601" d="M123 711q0 182 54 321t147.5 232.5t217.5 140.5t263 47q137 0 259 -47t214 -140.5t146.5 -232.5t54.5 -321t-54.5 -321.5t-146.5 -233t-214 -140.5t-259 -47q-139 0 -263 47t-217.5 140.5t-147.5 233t-54 321.5zM332 711q0 -129 32.5 -234.5t93 -179.5t147.5 -114 t196 -40t194.5 40t146 114t93.5 179.5t33 234.5t-33 234.5t-93.5 179t-146.5 113.5t-194 40q-109 0 -196 -40t-147.5 -113.5t-93 -179t-32.5 -234.5zM488 1569q8 25 25.5 55.5t42 56t57 44t73.5 18.5q37 0 72 -12t64 -29q35 -18 56 -25.5t44 -7.5q35 0 61.5 28t40.5 56 l92 -41q-8 -25 -25.5 -54.5t-42 -55t-57 -44t-73.5 -18.5q-37 0 -72 12.5t-63 28.5q-35 16 -56.5 24.5t-44.5 8.5q-35 0 -61.5 -28.5t-40.5 -57.5zM541 1839v131h520v-131h-520z" />
<glyph unicode="&#x22d;" horiz-adv-x="1216" d="M109 532q0 125 36.5 228.5t103 177.5t159 114t200.5 40q109 0 201 -40t158.5 -114t103.5 -177.5t37 -228.5q0 -127 -37 -229t-103.5 -176t-158.5 -114t-201 -40t-201 40t-158.5 114t-103 176t-36.5 229zM307 532q0 -180 81 -285.5t220 -105.5t220 105.5t81 285.5 t-80.5 286t-220.5 106q-139 0 -220 -106t-81 -286zM295 1241q8 25 25.5 55.5t42 56t57 44t73.5 18.5q37 0 72 -12t64 -29q35 -18 56 -25.5t44 -7.5q35 0 61.5 28t40.5 56l92 -41q-8 -25 -25.5 -54.5t-42 -55t-57 -44t-73.5 -18.5q-37 0 -72 12.5t-63 28.5q-35 16 -56.5 24.5 t-44.5 8.5q-35 0 -61.5 -28.5t-40.5 -57.5zM348 1511v131h520v-131h-520z" />
<glyph unicode="&#x22e;" horiz-adv-x="1601" d="M123 711q0 182 54 321t147.5 232.5t217.5 140.5t263 47q137 0 259 -47t214 -140.5t146.5 -232.5t54.5 -321t-54.5 -321.5t-146.5 -233t-214 -140.5t-259 -47q-139 0 -263 47t-217.5 140.5t-147.5 233t-54 321.5zM332 711q0 -129 32.5 -234.5t93 -179.5t147.5 -114 t196 -40t194.5 40t146 114t93.5 179.5t33 234.5t-33 234.5t-93.5 179t-146.5 113.5t-194 40q-109 0 -196 -40t-147.5 -113.5t-93 -179t-32.5 -234.5zM678 1736q0 57 36 91t87 34t87 -33.5t36 -91.5q0 -57 -36 -91t-87 -34t-87 34t-36 91z" />
<glyph unicode="&#x22f;" horiz-adv-x="1216" d="M109 532q0 125 36.5 228.5t103 177.5t159 114t200.5 40q109 0 201 -40t158.5 -114t103.5 -177.5t37 -228.5q0 -127 -37 -229t-103.5 -176t-158.5 -114t-201 -40t-201 40t-158.5 114t-103 176t-36.5 229zM307 532q0 -180 81 -285.5t220 -105.5t220 105.5t81 285.5 t-80.5 286t-220.5 106q-139 0 -220 -106t-81 -286zM485 1382q0 57 36 91t87 34t87 -33.5t36 -91.5q0 -57 -36 -91t-87 -34t-87 34t-36 91z" />
<glyph unicode="&#x230;" horiz-adv-x="1601" d="M123 711q0 182 54 321t147.5 232.5t217.5 140.5t263 47q137 0 259 -47t214 -140.5t146.5 -232.5t54.5 -321t-54.5 -321.5t-146.5 -233t-214 -140.5t-259 -47q-139 0 -263 47t-217.5 140.5t-147.5 233t-54 321.5zM332 711q0 -129 32.5 -234.5t93 -179.5t147.5 -114 t196 -40t194.5 40t146 114t93.5 179.5t33 234.5t-33 234.5t-93.5 179t-146.5 113.5t-194 40q-109 0 -196 -40t-147.5 -113.5t-93 -179t-32.5 -234.5zM541 1839v131h520v-131h-520zM688 1645q0 53 33 84t80 31t80 -31t33 -84t-33 -84t-80 -31t-80 31t-33 84z" />
<glyph unicode="&#x231;" horiz-adv-x="1216" d="M109 532q0 125 36.5 228.5t103 177.5t159 114t200.5 40q109 0 201 -40t158.5 -114t103.5 -177.5t37 -228.5q0 -127 -37 -229t-103.5 -176t-158.5 -114t-201 -40t-201 40t-158.5 114t-103 176t-36.5 229zM307 532q0 -180 81 -285.5t220 -105.5t220 105.5t81 285.5 t-80.5 286t-220.5 106q-139 0 -220 -106t-81 -286zM348 1511v131h520v-131h-520zM495 1317q0 53 33 84t80 31t80 -31t33 -84t-33 -84t-80 -31t-80 31t-33 84z" />
<glyph unicode="&#x232;" horiz-adv-x="1232" d="M16 1419h234q78 -168 174 -341t199 -333q100 160 196 333t176 341h222l-236 -417l-264 -429v-573h-199v569l-266 432zM325 1628v147h582v-147h-582z" />
<glyph unicode="&#x233;" horiz-adv-x="1026" d="M8 -352l35 153q23 -10 58.5 -19t70.5 -9q113 0 176.5 50t114.5 163q-129 246 -240.5 521t-185.5 558h205q23 -92 54.5 -198.5t70.5 -219t84 -225.5t94 -217q78 215 135 426t108 434h197q-74 -301 -164 -578.5t-194 -519.5q-41 -92 -85 -158.5t-97.5 -109.5t-120 -63.5 t-150.5 -20.5q-23 0 -47.5 3t-48 8t-43 11.5t-27.5 10.5zM248 1309v147h582v-147h-582z" />
<glyph unicode="&#x234;" horiz-adv-x="847" d="M-4 -299l213 258q-2 16 -2 33v33v1531l190 33v-1442q41 29 86 44.5t99 15.5q61 0 111 -23.5t86 -63.5t55.5 -93.5t19.5 -110.5q0 -51 -17.5 -103.5t-54.5 -95.5t-94 -69.5t-137 -26.5q-117 0 -190.5 48t-112.5 132l-154 -186zM397 -18v-52q0 -74 41 -118.5t113 -44.5 t109.5 44t37.5 105t-36.5 104t-108.5 43q-51 0 -86 -22t-70 -59z" />
<glyph unicode="&#x235;" horiz-adv-x="1478" d="M168 0v1034q66 16 174.5 34.5t249.5 18.5q127 0 211 -35.5t134 -100t70.5 -154.5t20.5 -199v-451q41 29 86 44.5t98 15.5q61 0 111.5 -23.5t86.5 -63.5t55.5 -93.5t19.5 -110.5q0 -51 -17.5 -103.5t-54.5 -95.5t-94 -69.5t-137 -26.5q-117 0 -190.5 48t-112.5 132 l-154 -186l-98 86l213 258q-2 16 -2 33v33v532q0 98 -13.5 168t-44 113t-82 62.5t-127.5 19.5q-31 0 -63.5 -2.5t-62 -5.5t-53 -7l-34.5 -6v-899h-190zM1028 -18v-52q0 -74 41 -118.5t113 -44.5t109.5 44t37.5 105t-37 104t-108 43q-51 0 -86 -22t-70 -59z" />
<glyph unicode="&#x236;" horiz-adv-x="847" d="M-4 -299l213 258q-2 16 -2 33v33v1337l190 33v-330h373v-160h-373v-758q41 29 86 44.5t99 15.5q61 0 111 -23.5t86 -63.5t55.5 -93.5t19.5 -110.5q0 -51 -17.5 -103.5t-54.5 -95.5t-94 -69.5t-137 -26.5q-117 0 -190.5 48t-112.5 132l-154 -186zM397 -18v-52 q0 -74 41 -118.5t113 -44.5t109.5 44t37.5 105t-36.5 104t-108.5 43q-51 0 -86 -22t-70 -59z" />
<glyph unicode="&#x237;" horiz-adv-x="526" d="M-135 -356l24 155q20 -6 47 -10t50 -4q98 0 140 60.5t42 177.5v1042h190v-1040q0 -205 -93 -304.5t-271 -99.5q-25 0 -63.5 6.5t-65.5 16.5z" />
<glyph unicode="&#x238;" horiz-adv-x="1902" d="M109 532q0 123 31.5 225.5t93 176.5t150.5 115t204 41q92 0 162.5 -25t105.5 -47v538l191 33v-571q35 23 105.5 47.5t162.5 24.5q115 0 204 -41t150.5 -115t93 -176.5t31.5 -225.5q0 -129 -38 -232t-107.5 -175t-168 -111t-220.5 -39q-92 0 -172 16.5t-138 33.5 q-57 -16 -136 -33t-171 -17q-123 0 -221 39t-168 111t-107.5 175t-37.5 232zM307 532q0 -186 92.5 -287.5t245.5 -101.5q78 0 130 9.5t81 17.5v670q-35 29 -100.5 55.5t-143.5 26.5q-82 0 -140 -30t-95 -82t-53.5 -124t-16.5 -154zM1047 170q29 -8 81 -17.5t129 -9.5 q154 0 246 101.5t92 287.5q0 82 -16 154t-53 124t-95.5 82t-140.5 30q-78 0 -143.5 -27t-99.5 -55v-670z" />
<glyph unicode="&#x239;" horiz-adv-x="1902" d="M109 530q0 129 37.5 232.5t107.5 175.5t168 110.5t221 38.5q92 0 171 -16t136 -33q57 16 137 32.5t173 16.5q123 0 221 -38.5t167.5 -110.5t107.5 -175.5t38 -232.5q0 -121 -31.5 -223t-93 -176t-150.5 -115t-204 -41q-92 0 -163 25t-105 47v-426h-191v426 q-35 -23 -105.5 -47.5t-162.5 -24.5q-115 0 -204 41t-150.5 115t-93 176t-31.5 223zM307 530q0 -82 16.5 -152.5t53.5 -122.5t95 -82t140 -30q78 0 143.5 27t100.5 55v668q-29 8 -77 16.5t-134 8.5q-154 0 -246 -101t-92 -287zM1047 225q35 -29 100 -55.5t143 -26.5 q82 0 140.5 30t95.5 82t53 123t16 152q0 186 -92 287t-246 101q-86 0 -134 -8.5t-76 -16.5v-668z" />
<glyph unicode="&#x23a;" horiz-adv-x="1366" d="M25 0l153 417l140 363l137 329q68 157 141 310h176l96 -209l144 381l141 -49l-199 -530q92 -217 186 -462l203 -550h-206q-35 92 -66 182l-63 183h-299l-213 -572l-140 51l195 521h-195l-129 -365h-202zM410 516h198l170 457l-96 231q-72 -160 -140.5 -334t-131.5 -354z M766 516h188l-46 124l-48 126z" />
<glyph unicode="&#x23b;" horiz-adv-x="1320" d="M123 711q0 178 53 316t145.5 232.5t213 143.5t256.5 49q53 0 101 -4t89 -12l66 155l145 -61l-57 -133q47 -16 75.5 -30.5t40.5 -23.5l-59 -163q-18 10 -50 24.5t-75 28.5l-442 -1057q80 -33 188 -33q135 0 228.5 31t138.5 53l51 -164q-14 -10 -52 -26.5t-95.5 -31.5 t-132 -25.5t-160.5 -10.5q-131 0 -238 37l-88 -213l-146 62l93 219q-135 90 -212 250t-77 387zM334 711q0 -145 39 -260t116 -191l422 1008q-57 10 -110 10q-104 0 -190.5 -39t-148 -112.5t-95 -179t-33.5 -236.5z" />
<glyph unicode="&#x23c;" horiz-adv-x="985" d="M109 530q0 123 35.5 225.5t101 177.5t161 117t211.5 42q18 0 37 -1t39 -4l56 173l127 -43l-50 -156l52 -17q25 -8 51 -18l-51 -160l-48.5 20.5t-54.5 18.5l-239 -747q49 -14 118 -15q76 0 141.5 15.5t100.5 31.5l27 -159q-16 -10 -48 -19.5t-73 -17.5t-86 -13.5t-86 -5.5 q-76 0 -148 17l-51 -164l-127 43l53 166q-125 68 -187 195.5t-62 297.5zM307 530q0 -102 25.5 -181t83.5 -130l225 705h-4q-160 0 -245 -100.5t-85 -293.5z" />
<glyph unicode="&#x23d;" horiz-adv-x="1097" d="M43 664v153h164v602h199v-602h317v-153h-317v-492h655v-172h-854v664h-164z" />
<glyph unicode="&#x23e;" horiz-adv-x="1277" d="M37 1253v166h1022l94 135l129 -84l-602 -874v-596h-193v350l-299 -432l-129 82l426 616v637h-448zM676 862l270 391h-270v-391z" />
<glyph unicode="&#x23f;" horiz-adv-x="921" d="M76 53l57 144q25 -10 94.5 -35t188.5 -25q229 0 229 133q0 35 -13.5 60.5t-42 48t-73.5 44t-108 46.5l-118 50.5t-97.5 60t-65.5 84t-25 120.5q0 141 104.5 224.5t285.5 83.5q45 0 90 -5.5t84 -12.5t68.5 -15t45.5 -15l-35 -163q-31 16 -96 33.5t-157 17.5 q-80 0 -139.5 -32t-59.5 -99q0 -37 13 -62.5t41 -46t69 -40t98 -40.5q74 -29 133.5 -55.5t101.5 -62t64.5 -87t22.5 -126.5q0 -74 -29 -126.5t-80 -86t-121.5 -49t-154.5 -15.5q-16 0 -52.5 2t-52.5 2l92 -110q41 -49 100.5 -83t151.5 -34q18 0 44 2t50 6l19 -154 q-27 -6 -66 -10t-63 -4q-68 0 -115 10.5t-84 32t-69.5 52t-71.5 71.5q-35 35 -66 74l-61 76q-31 37 -62.5 67.5t-68.5 48.5z" />
<glyph unicode="&#x240;" horiz-adv-x="968" d="M82 0v127q49 90 121 199l148 216l152 202l130 161h-527v160h768v-143q-43 -47 -113 -131l-152 -190l-164 -223q-83 -118 -150 -231q47 -10 88 -29.5t73.5 -42t59.5 -46t45 -41.5l69 -70q34 -35 69.5 -62.5t75.5 -46t89 -18.5q8 0 34 1t50 5l21 -162q-27 -6 -66 -10 t-63 -4q-68 0 -118 17.5t-91 45t-78 64.5l-78 78q-23 23 -56.5 52.5t-76.5 57t-98.5 46t-120.5 18.5h-41z" />
<glyph unicode="&#x241;" horiz-adv-x="985" d="M33 1352q25 16 66.5 33.5t96 33t116 24.5t124.5 9q236 0 360 -97.5t124 -267.5q0 -78 -20.5 -134t-56.5 -99t-84 -77t-104 -68q-53 -35 -91 -64t-61.5 -61.5t-34.5 -75.5t-11 -105v-403h-199v428q0 84 16.5 144.5t50 108.5t84 86t117.5 77l73 45t59.5 50t41 61.5 t15.5 76.5q0 51 -21.5 89t-60.5 62.5t-90 37t-111 12.5q-113 0 -203 -32t-133 -58z" />
<glyph unicode="&#x242;" horiz-adv-x="862" d="M25 1001q20 12 60 29t91 30t107.5 22.5t109.5 9.5q201 0 306.5 -79t105.5 -218q0 -63 -18.5 -110.5t-48 -83.5t-68.5 -64.5t-82 -55.5l-70 -48q-33 -24 -56.5 -50.5t-36.5 -59t-13 -75.5v-248h-183v262q0 68 17.5 117t48.5 89t74 70.5t94 61.5q59 35 106 79t47 105 q0 78 -65.5 111t-161.5 33q-41 0 -86 -8.5t-87 -20.5t-77 -27.5t-55 -27.5z" />
<glyph unicode="&#x243;" horiz-adv-x="1351" d="M43 330v143h164v926q41 10 90 16t99 10.5t100.5 6.5t93.5 2q123 0 230.5 -18.5t187 -62.5t126 -116t46.5 -176q0 -117 -58.5 -191.5t-156.5 -109.5q131 -37 204.5 -117t73.5 -227q0 -213 -156.5 -320.5t-496.5 -107.5q-43 0 -93.5 2t-100.5 6t-99 10t-90 17v307h-164z M401 158q23 -2 54 -4q27 -2 63 -2h84q88 0 167 11t138.5 40.5t95 81t35.5 129.5q0 70 -26.5 119t-76.5 77.5t-120 42t-156 13.5h-258v-193h244v-143h-244v-172zM401 817h203q84 0 152.5 11.5t118 38t76 70.5t26.5 110q0 61 -29.5 103t-81 67.5t-120 38t-144.5 12.5 q-47 0 -84 -1t-63 -3q-31 -2 -54 -4v-443z" />
<glyph unicode="&#x244;" horiz-adv-x="1470" d="M43 698v154h154v567h198v-567h680v567h199v-567h153v-154h-153v-170q0 -119 -32 -221t-98.5 -177t-168 -118t-240.5 -43t-241.5 43t-168 118t-97 177.5t-31.5 220.5v170h-154zM395 551q0 -213 94.5 -309.5t245.5 -96.5q76 0 138.5 24t107.5 73t69.5 125.5t24.5 183.5v147 h-680v-147z" />
<glyph unicode="&#x245;" horiz-adv-x="1343" d="M20 0q76 225 148 417l139 363l134 329l137 310h186l136 -310l135 -329l140 -363l148 -417h-219l-217 623q-106 299 -219 561q-113 -260 -219 -560l-216 -624h-213z" />
<glyph unicode="&#x246;" horiz-adv-x="1226" d="M180 0v1419h774l60 142l143 -54l-287 -684h144v-157h-211l-209 -502h524v-164h-594l-100 -242l-141 54l77 188h-180zM379 164h51l209 502h-260v-502zM379 823h326l182 434h-508v-434z" />
<glyph unicode="&#x247;" d="M109 530q0 141 42 247t111.5 175.5t159.5 104.5t188 35q20 0 39 -1t37 -4l55 173l127 -43l-53 -164q254 -106 254 -504q0 -25 -1 -41t-1 -23h-434l-105 -325q33 -10 73 -15.5t85 -5.5q102 0 175 16.5t110 32.5q6 -41 14 -77.5t14 -77.5q-41 -18 -132 -38t-201 -20 q-102 0 -189 23l-53 -170l-127 43l55 174q-127 72 -185 197.5t-58 287.5zM303 485q12 -172 109 -262l84 262h-193zM309 625h232l98 309q-76 6 -135.5 -17.5t-101.5 -67.5t-65.5 -102.5t-27.5 -121.5zM678 625h194q0 100 -27.5 163.5t-80.5 104.5z" />
<glyph unicode="&#x248;" horiz-adv-x="1062" d="M14 84l78 158q43 -31 111.5 -65t171.5 -34q147 0 214.5 75t67.5 257v189h-297v153h297v602h199v-602h164v-153h-164v-207q0 -102 -21.5 -190.5t-75.5 -155t-145.5 -104.5t-228.5 -38q-70 0 -128 11.5t-105.5 29t-82.5 37t-55 37.5z" />
<glyph unicode="&#x249;" horiz-adv-x="604" d="M-82 -360l25 155q20 -6 46.5 -10t49.5 -4q98 0 140 60.5t42 176.5v474h-188v143h188v430h191v-430h159v-143h-159v-472q0 -205 -92.5 -304t-272.5 -99q-25 0 -63.5 6.5t-65.5 16.5zM193 1382q0 57 35.5 91t86.5 34t87 -33.5t36 -91.5q0 -57 -35.5 -91t-87.5 -34 q-51 0 -86.5 34t-35.5 91z" />
<glyph unicode="&#x24a;" horiz-adv-x="1615" d="M123 711q0 182 54 321t147.5 232.5t217.5 140.5t263 47q137 0 258 -47t212 -140.5t144.5 -232.5t53.5 -321v-746q0 -92 25.5 -142t100.5 -50q16 0 44 2t45 8l18 -150q-23 -6 -60.5 -11t-66.5 -5q-92 0 -151.5 24.5t-93.5 72.5t-46 120t-12 166v203q-33 -53 -85 -96.5 t-115.5 -74t-133.5 -47t-137 -16.5q-139 0 -263 47t-217.5 140.5t-147.5 233t-54 321.5zM332 711q0 -129 32.5 -234.5t93 -179.5t147.5 -114t196 -40q106 0 193 40t147.5 114t93.5 179.5t33 234.5t-33 234.5t-93.5 179t-147.5 113.5t-193 40q-109 0 -196 -40t-147.5 -113.5 t-93 -179t-32.5 -234.5z" />
<glyph unicode="&#x24b;" horiz-adv-x="1214" d="M109 530q0 129 37.5 232.5t107.5 175.5t168 110.5t221 38.5q133 0 234.5 -19t169.5 -36v-1067q0 -92 29.5 -142t105.5 -50q16 0 43.5 2t44.5 8l18 -150q-23 -6 -60.5 -11t-66.5 -5q-92 0 -151.5 24.5t-93 72.5t-47 120t-13.5 166v47q-35 -23 -105.5 -47.5t-162.5 -24.5 q-115 0 -204 41t-150.5 115t-93 176t-31.5 223zM307 530q0 -82 16.5 -152.5t53.5 -122.5t95 -82t140 -30q78 0 143.5 27t100.5 55v672q-29 8 -77 14.5t-134 6.5q-154 0 -246 -101t-92 -287z" />
<glyph unicode="&#x24c;" horiz-adv-x="1323" d="M43 563v154h164v682q84 20 187.5 27.5t189.5 7.5q299 0 455.5 -113t156.5 -336q0 -139 -78 -238.5t-221 -148.5l86 -111q51 -68 104.5 -148.5t105.5 -168.5t89 -170h-217q-41 78 -89 159t-97.5 154.5t-97.5 138t-87 111.5h-288v-563h-199v563h-164zM406 717h180 q94 0 167.5 11t126 42t80 83t27.5 134q0 80 -30.5 133.5t-83 84t-123 43t-150.5 12.5q-47 0 -83 -1.5t-60 -3.5q-29 -2 -51 -2v-536z" />
<glyph unicode="&#x24d;" horiz-adv-x="823" d="M33 420v143h151v457q68 25 168.5 46t225.5 21q25 0 56.5 -3t62 -8t56 -10t38.5 -9l-33 -166q-23 8 -75 19.5t-134 11.5q-53 0 -105.5 -11.5t-68.5 -15.5v-332h299v-143h-299v-420h-191v420h-151z" />
<glyph unicode="&#x24e;" horiz-adv-x="1273" d="M37 965v149h170l-87 154l-83 151h225q35 -76 74 -151l80 -154h450l81 154l77 151h213l-84 -151l-88 -154h172v-149h-258l-119 -197l-123 -197v-571h-198v567l-126 200l-120 198h-256zM498 965l72 -125l73 -119l72 119q37 59 71 125h-288z" />
<glyph unicode="&#x24f;" horiz-adv-x="1067" d="M33 -346l35 153q23 -10 58.5 -19t70.5 -9q111 0 175 47t113 160q-66 123 -126 253t-113 267h-207v139h154q-78 217 -134 420h199q23 -92 54.5 -199.5t70.5 -220.5h330q29 104 54 208l50 212h191l-57 -213l-58 -207h135v-139h-180q-47 -147 -96.5 -281.5t-102.5 -257.5 q-41 -92 -84 -157.5t-96 -107.5t-118.5 -61.5t-151.5 -19.5q-23 0 -47.5 3t-48 8.5t-43 11.5t-27.5 10zM432 506q63 -172 135 -318q57 156 105 318h-240z" />
<glyph unicode="&#x292;" horiz-adv-x="972" d="M-2 -315l41 163q47 -23 131 -41t180 -18q166 0 254 72.5t88 206.5q0 80 -34.5 130t-91 78.5t-130.5 39t-151 10.5h-35v125l96 112l99 124l90 119q41 56 69 99h-559v160h795v-111q-29 -47 -71 -107l-91 -127q-49 -67 -104 -133l-105 -124q86 -12 163 -39t133 -73 t89 -116.5t33 -171.5q0 -111 -38 -193.5t-108.5 -138t-169 -83t-219.5 -27.5q-113 0 -208 18.5t-146 45.5z" />
<glyph unicode="&#x2bc;" horiz-adv-x="778" d="M242 1206q39 78 56 153t17 152q0 20 -1 43t-3 35h197v-38q0 -15 -2 -35q-8 -104 -43 -191.5t-84 -165.5z" />
<glyph unicode="&#x2c6;" horiz-adv-x="778" d="M111 1282l278 293l279 -293l-80 -90l-199 180l-199 -180z" />
<glyph unicode="&#x2c7;" horiz-adv-x="778" d="M111 1493l79 90l199 -180l199 180l80 -90l-279 -293z" />
<glyph unicode="&#x2c9;" horiz-adv-x="778" d="M98 1309v147h582v-147h-582z" />
<glyph unicode="&#x2d8;" horiz-adv-x="778" d="M123 1534h123q2 -23 9 -49.5t23.5 -48t45 -36t71.5 -14.5t72 14.5t45 36t23.5 48t9.5 49.5h123q2 -68 -18.5 -121t-58.5 -89t-88 -55.5t-108 -19.5q-57 0 -107 19.5t-88 55.5t-58.5 89t-18.5 121z" />
<glyph unicode="&#x2d9;" horiz-adv-x="778" d="M266 1382q0 57 36 91t87 34t87 -33.5t36 -91.5q0 -57 -36 -91t-87 -34t-87 34t-36 91z" />
<glyph unicode="&#x2da;" horiz-adv-x="778" d="M178 1386q0 49 17.5 87t46 66t66.5 42t81 14t81 -14t66.5 -42t46 -65.5t17.5 -87.5q0 -49 -17.5 -86.5t-46 -65.5t-66.5 -42t-81 -14t-81 14t-66.5 42t-46 65.5t-17.5 86.5zM281 1386q0 -53 31.5 -82.5t76.5 -29.5t77 29.5t32 82.5t-32 83t-77 30t-76.5 -30t-31.5 -83z " />
<glyph unicode="&#x2db;" horiz-adv-x="778" d="M150 -227q0 47 26.5 91t61.5 81q25 27 44 44t35 27h191l-52 -40q-30 -24 -61 -56q-29 -33 -47 -57.5t-18 -52.5q0 -59 82 -60q14 0 37.5 3t46.5 11l14 -124q-23 -10 -58.5 -16.5t-76.5 -6.5q-115 0 -170 42t-55 114z" />
<glyph unicode="&#x2dc;" horiz-adv-x="778" d="M51 1309q8 25 26.5 57.5t45.5 60t62.5 47t78.5 19.5q41 0 77 -14.5t69 -30.5q35 -16 59.5 -24.5t46.5 -8.5q35 0 64.5 29t46.5 61l98 -49q-10 -25 -27.5 -57.5t-44 -60t-62.5 -47t-79 -19.5q-41 0 -77 14t-68 31q-35 16 -59.5 24.5t-47.5 8.5q-35 0 -64.5 -29t-45.5 -61z " />
<glyph unicode="&#x2dd;" horiz-adv-x="778" d="M78 1262l235 327l115 -114l-252 -287zM416 1262l235 327l115 -114l-252 -287z" />
<glyph unicode="&#x311;" horiz-adv-x="778" d="M117 1249q-2 68 18.5 121t58 89t88 55.5t107.5 19.5t107.5 -19.5t88.5 -55.5t58.5 -89t18.5 -121h-123q-2 23 -9.5 49.5t-24 48t-45 36t-71.5 14.5t-71.5 -14.5t-45 -36t-23.5 -48t-9 -49.5h-123z" />
<glyph unicode="&#x384;" horiz-adv-x="778" d="M295 1255l231 349l146 -103l-266 -323z" />
<glyph unicode="&#x385;" horiz-adv-x="778" d="M-16 1384q0 51 32.5 82t77.5 31q47 0 79 -30.5t32 -82.5q0 -51 -32 -81.5t-79 -30.5q-45 0 -77.5 30.5t-32.5 81.5zM229 1247l183 350l137 -88l-213 -325zM573 1384q0 51 32 82t79 31t79 -30.5t32 -82.5q0 -51 -32 -81.5t-79 -30.5t-79 30.5t-32 81.5z" />
<glyph unicode="&#x386;" horiz-adv-x="1366" d="M20 0l154 417l140 363l137 329q68 157 141 310h182q74 -154 141 -310l137 -329l140 -363l154 -417h-218l-65 181l-64 181h-643l-129 -362h-207zM414 526h528l-130 345q-65 167 -134 321q-72 -154 -136 -321zM131 1040l94 412l184 -47l-139 -397z" />
<glyph unicode="&#x388;" horiz-adv-x="1306" d="M309 0v1419h867v-170h-668v-422h594v-165h-594v-492h719v-170h-918zM-55 1040l94 412l184 -47l-139 -397z" />
<glyph unicode="&#x389;" horiz-adv-x="1591" d="M319 0v1419h199v-592h694v592h199v-1419h-199v655h-694v-655h-199zM-55 1040l94 412l184 -47l-139 -397z" />
</font>
</defs>
</svg>
