<?xml version="1.0" standalone="no"?>
<!DOCTYPE svg PUBLIC "-//W3C//DTD SVG 1.1//EN" "http://www.w3.org/Graphics/SVG/1.1/DTD/svg11.dtd" >
<svg xmlns="http://www.w3.org/2000/svg">
<metadata>
This is a custom SVG webfont generated by Font Squirrel.
Copyright   : Copyright 2010 Canonical Ltd  Licensed under the Ubuntu Font Licence 10
Designer    : Dalton Maag Ltd
Foundry     : Dalton Maag Ltd
Foundry URL : httpwwwdaltonmaagcom
</metadata>
<defs>
<font id="webfontRn1LIUk0" horiz-adv-x="778" >
<font-face units-per-em="2048" ascent="1638" descent="-410" />
<missing-glyph horiz-adv-x="481" />
<glyph unicode="&#xfb00;" horiz-adv-x="1523" d="M-31 -362q61 80 96 135t58.5 112.5t41.5 131.5l46 194l227 950q25 102 63 182t96 134.5t138 83t191 28.5q72 0 136 -14t97 -31l-76 -151q-16 8 -56 20t-118 12q-68 0 -114.5 -19.5t-79.5 -54t-52.5 -83.5t-33.5 -111l-23 -92h357l-37 -160h-357l-163 -676l-44 -186 q-18 -82 -43.5 -153.5t-67.5 -138t-114 -138.5zM731 -362q61 80 96 135t58.5 112.5t41.5 131.5l46 194l227 950q25 102 63 182t96 134.5t138 83t191 28.5q72 0 136 -14t97 -31l-76 -151q-16 8 -56 20t-118 12q-68 0 -114.5 -19.5t-79.5 -54t-52.5 -83.5t-33.5 -111l-23 -92 h357l-37 -160h-357l-163 -676l-44 -186q-18 -82 -43.5 -153.5t-67.5 -138t-114 -138.5z" />
<glyph unicode="&#xfb01;" horiz-adv-x="1280" d="M-31 -362q61 80 96 135t58.5 112.5t41.5 131.5l46 194l227 950q25 102 63 182t96 134.5t138 83t191 28.5q59 0 112.5 -11t85.5 -28l-75 -151q-16 8 -50 17t-90 9q-68 0 -114.5 -19.5t-79.5 -54t-52.5 -83.5t-33.5 -111l-23 -92h357l-37 -160h-357l-163 -676l-44 -186 q-18 -82 -43.5 -153.5t-67.5 -138t-114 -138.5zM922 0l256 1065h190l-256 -1065h-190zM1223 1366q0 66 41 103.5t92 37.5q47 0 79.5 -29.5t32.5 -82.5q0 -61 -43 -99.5t-92 -38.5q-47 0 -78.5 29t-31.5 80z" />
<glyph unicode="&#xfb02;" horiz-adv-x="1343" d="M-31 -362q61 80 96 135t58.5 112.5t41.5 131.5l46 194l227 950q25 102 63 182t96 134.5t138 83t191 28.5q59 0 112.5 -11t85.5 -28l-75 -151q-16 8 -50 17t-90 9q-68 0 -114.5 -19.5t-79.5 -54t-52.5 -83.5t-33.5 -111l-23 -92h357l-37 -160h-357l-163 -676l-44 -186 q-18 -82 -43.5 -153.5t-67.5 -138t-114 -138.5zM995 279q0 47 8.5 98t22.5 106l258 1073l199 33l-269 -1120l-20 -88q-10 -43 -10 -82q0 -70 33.5 -111t125.5 -51l-43 -155q-84 2 -142 25.5t-94 62.5t-52.5 92.5t-16.5 116.5z" />
<glyph unicode="&#xfb03;" horiz-adv-x="2041" d="M-31 -362q61 80 96 135t58.5 112.5t41.5 131.5l46 194l227 950q25 102 63 182t96 134.5t138 83t191 28.5q72 0 136 -14t97 -31l-76 -151q-16 8 -56 20t-118 12q-68 0 -114.5 -19.5t-79.5 -54t-52.5 -83.5t-33.5 -111l-23 -92h357l-37 -160h-357l-163 -676l-44 -186 q-18 -82 -43.5 -153.5t-67.5 -138t-114 -138.5zM731 -362q61 80 96 135t58.5 112.5t41.5 131.5l46 194l227 950q25 102 63 182t96 134.5t138 83t191 28.5q59 0 112.5 -11t85.5 -28l-75 -151q-16 8 -50 17t-90 9q-68 0 -114.5 -19.5t-79.5 -54t-52.5 -83.5t-33.5 -111 l-23 -92h357l-37 -160h-357l-163 -676l-44 -186q-18 -82 -43.5 -153.5t-67.5 -138t-114 -138.5zM1684 0l256 1065h190l-256 -1065h-190zM1985 1366q0 66 41 103.5t92 37.5q47 0 79.5 -29.5t32.5 -82.5q0 -61 -43 -99.5t-92 -38.5q-47 0 -78.5 29t-31.5 80z" />
<glyph unicode="&#xfb04;" horiz-adv-x="2105" d="M-31 -362q61 80 96 135t58.5 112.5t41.5 131.5l46 194l227 950q25 102 63 182t96 134.5t138 83t191 28.5q72 0 136 -14t97 -31l-76 -151q-16 8 -56 20t-118 12q-68 0 -114.5 -19.5t-79.5 -54t-52.5 -83.5t-33.5 -111l-23 -92h357l-37 -160h-357l-163 -676l-44 -186 q-18 -82 -43.5 -153.5t-67.5 -138t-114 -138.5zM731 -362q61 80 96 135t58.5 112.5t41.5 131.5l46 194l227 950q25 102 63 182t96 134.5t138 83t191 28.5q59 0 112.5 -11t85.5 -28l-75 -151q-16 8 -50 17t-90 9q-68 0 -114.5 -19.5t-79.5 -54t-52.5 -83.5t-33.5 -111 l-23 -92h357l-37 -160h-357l-163 -676l-44 -186q-18 -82 -43.5 -153.5t-67.5 -138t-114 -138.5zM1757 279q0 47 8.5 98t22.5 106l258 1073l199 33l-269 -1120l-20 -88q-10 -43 -10 -82q0 -70 33.5 -111t125.5 -51l-43 -155q-84 2 -142 25.5t-94 62.5t-52.5 92.5t-16.5 116.5 z" />
<glyph unicode="&#x9;" horiz-adv-x="481" />
<glyph unicode="&#xd;" horiz-adv-x="481" />
<glyph horiz-adv-x="0" />
<glyph horiz-adv-x="0" />
<glyph horiz-adv-x="0" />
<glyph unicode=" "  horiz-adv-x="481" />
<glyph unicode="&#x09;" horiz-adv-x="481" />
<glyph unicode="&#xa0;" horiz-adv-x="481" />
<glyph unicode="!" horiz-adv-x="520" d="M154 94q0 74 44 114t101 40t91 -32t34 -93q0 -35 -13.5 -62.5t-34 -47t-47 -30t-53.5 -10.5q-57 0 -89.5 31t-32.5 90zM303 442q16 139 37.5 279.5t62.5 312.5l93 385h200l-92 -387q-12 -49 -33.5 -128t-47 -163t-53.5 -164.5t-50 -134.5h-117z" />
<glyph unicode="&#x22;" horiz-adv-x="847" d="M436 1026q8 111 22.5 218.5t39.5 211.5l24 100h195l-25 -102q-25 -100 -62.5 -212t-82.5 -216h-111zM790 1026q8 111 22.5 218.5t39.5 211.5l24 100h195l-25 -102q-25 -100 -62.5 -212t-82.5 -216h-111z" />
<glyph unicode="#" horiz-adv-x="1347" d="M190 375l37 151h205l158 367h-275l37 151h301l162 375h172l-160 -375h322l160 375h172l-160 -375h172l-37 -151h-199l-159 -367h270l-37 -151h-297l-160 -375h-172l158 375h-319l-160 -375h-172l158 375h-177zM604 526h322l159 367h-321z" />
<glyph unicode="$" horiz-adv-x="1163" d="M176 137l88 146q37 -23 113 -54.5t194 -31.5q59 0 119 11t107 37.5t75.5 70.5t28.5 110q0 45 -17.5 78t-49 59.5t-75.5 47.5l-95 46q-45 20 -89.5 47t-79 65t-56 90t-21.5 126q0 147 99 246.5t296 124.5l55 233h166l-55 -229q88 -8 158.5 -36t107.5 -52l-86 -142 q-35 25 -101.5 47.5t-164.5 22.5q-59 0 -111.5 -11t-92.5 -36t-62.5 -62.5t-22.5 -89.5q0 -84 51.5 -129t155.5 -94q55 -25 106.5 -53.5t89 -67.5t60.5 -91t23 -124q0 -90 -31 -159.5t-88.5 -119.5t-136 -81t-172.5 -41l-62 -264h-166l64 266q-53 2 -102.5 12.5t-92.5 24.5 t-76 29.5t-51 27.5z" />
<glyph unicode="%" horiz-adv-x="1720" d="M328 975q0 86 27.5 171t77.5 152.5t124 109.5t166 42q123 0 191.5 -70.5t68.5 -208.5q0 -86 -27.5 -171t-78 -152.5t-124 -109.5t-165.5 -42q-123 0 -191.5 71t-68.5 208zM360 0l1125 1419h194l-1124 -1419h-195zM479 989q0 -70 23.5 -114t95.5 -44q59 0 103 33t73 81 t43 105.5t14 106.5q0 70 -23.5 114t-94.5 44q-59 0 -103.5 -33t-73 -81t-43 -105.5t-14.5 -106.5zM1057 248q0 86 27.5 171t77.5 152.5t124 109.5t166 42q123 0 191.5 -70.5t68.5 -208.5q0 -86 -27.5 -171t-78 -152.5t-124 -109.5t-165.5 -42q-123 0 -191.5 71t-68.5 208z M1208 262q0 -70 23.5 -114t95.5 -44q59 0 103.5 33t73 81t43 105.5t14.5 106.5q0 70 -24 114t-95 44q-59 0 -103.5 -33t-73 -81t-43 -105.5t-14.5 -106.5z" />
<glyph unicode="&#x26;" horiz-adv-x="1318" d="M164 301q0 92 29.5 166t82 132t124 104.5t155.5 82.5q-35 57 -59.5 121t-24.5 146q0 92 30.5 165.5t87 126t137.5 80t179 27.5q57 0 110.5 -17.5t92.5 -52t62.5 -85t23.5 -117.5q0 -80 -28.5 -144.5t-81 -118t-124 -98.5t-157.5 -84l237 -329q98 125 158 288l166 -20 q-29 -86 -85 -191.5t-142 -206.5q51 -72 95 -141t68 -135h-196q-16 37 -40 75l-52 79q-92 -76 -206 -124t-261 -48q-102 0 -174 23.5t-118 66.5t-67.5 101t-21.5 128zM350 334q0 -86 46 -140.5t161 -54.5q98 0 192.5 36t170.5 106l-283 389q-53 -23 -104.5 -54.5 t-91.5 -72.5t-65.5 -93.5t-25.5 -115.5zM649 1065q0 -55 21.5 -108.5t54.5 -106.5q53 20 106.5 50t95.5 69t67.5 86t25.5 102q0 70 -38 106.5t-103 36.5q-92 0 -161 -58t-69 -177z" />
<glyph unicode="'" horiz-adv-x="491" d="M436 1026q8 111 22.5 218.5t39.5 211.5l24 100h195l-25 -102q-25 -100 -62.5 -212t-82.5 -216h-111z" />
<glyph unicode="(" horiz-adv-x="657" d="M262 254q0 389 156.5 725t464.5 625l127 -91q-129 -129 -233.5 -273t-177.5 -299t-113 -317.5t-40 -330.5q0 -174 25 -313.5t84 -268.5l-145 -82q-70 123 -109 285t-39 340z" />
<glyph unicode=")" horiz-adv-x="657" d="M-98 -289q129 129 233.5 273.5t177 299t112.5 317.5t40 331q0 174 -24.5 313t-84.5 268l146 82q70 -123 108.5 -284.5t38.5 -339.5q0 -389 -156.5 -725t-463.5 -625z" />
<glyph unicode="*" horiz-adv-x="970" d="M307 1055l58 172l12 -4q86 -29 157 -68l144 -80l-32 164q-15 78 -15 164v16h184v-16q0 -86 -15 -164l-32 -164l144 80q71 39 157 68l12 4l58 -172l-17 -6q-82 -31 -163.5 -40.5t-167.5 -15.5l127 -111q59 -54 110 -126l10 -15l-149 -104l-8 12q-49 74 -85 147l-73 150 l-73 -150q-36 -73 -85 -147l-8 -12l-149 104l10 15q51 72 110 126l127 111q-86 6 -167.5 15.5t-163.5 40.5z" />
<glyph unicode="+" horiz-adv-x="1163" d="M248 528l39 162h372l103 422h174l-102 -422h372l-39 -162h-372l-103 -424h-172l101 424h-373z" />
<glyph unicode="," horiz-adv-x="512" d="M10 -272q41 55 75 120.5t58.5 133t41 132t22.5 119.5h203q-10 -74 -35 -149.5t-60.5 -148t-81 -139t-94.5 -122.5z" />
<glyph unicode="-" horiz-adv-x="608" d="M182 524l41 178h496l-41 -178h-496z" />
<glyph unicode="." horiz-adv-x="512" d="M143 94q0 74 44 114t102 40q57 0 91 -32t34 -93q0 -35 -13.5 -62.5t-34 -47t-47 -30t-53.5 -10.5q-57 0 -90 31t-33 90z" />
<glyph unicode="/" d="M-131 -379l1145 1983h190l-1145 -1983h-190z" />
<glyph unicode="0" horiz-adv-x="1163" d="M242 395q0 100 18.5 218t54 236t91 226.5t130 192.5t168 134t207.5 50q174 0 257 -107.5t83 -318.5q0 -100 -18.5 -218t-54 -235.5t-91 -226t-130 -192.5t-169 -134.5t-206.5 -50.5q-174 0 -257 107.5t-83 318.5zM436 420q0 -154 37 -219.5t131 -65.5q66 0 124 39 t108.5 104.5t91.5 152.5t69.5 183.5t44 195.5t15.5 191q0 154 -37 219.5t-131 65.5q-63 0 -122.5 -39t-110 -104.5t-91.5 -152.5t-69.5 -183t-44 -196.5t-15.5 -190.5z" />
<glyph unicode="1" horiz-adv-x="1163" d="M465 1126q123 45 251 116t245 177h137l-340 -1419h-191l273 1137q-29 -23 -69 -46.5t-86 -46t-95 -42t-94 -33.5z" />
<glyph unicode="2" horiz-adv-x="1163" d="M166 0q16 109 58 197t100.5 161.5t129 135t146.5 118.5l155 116q75 56 132 114.5t92 122t35 139.5q0 86 -46 134t-151 48q-57 0 -108.5 -14.5t-92.5 -34.5t-72.5 -44t-49.5 -42l-66 147q29 27 72 53.5t97 49t116.5 37t128.5 14.5q98 0 168.5 -27.5t114.5 -72.5 t64.5 -102.5t20.5 -119.5q0 -109 -34.5 -190.5t-94 -150t-137.5 -129.5l-166 -125l-108 -84q-57 -45 -108.5 -93.5t-90.5 -98.5t-55 -99h616l-37 -160h-829z" />
<glyph unicode="3" horiz-adv-x="1163" d="M145 53l72 162q14 -8 40 -21.5t62.5 -25.5t85 -21.5t109.5 -9.5q82 0 152.5 19.5t123 58.5t81 97.5t28.5 136.5q0 123 -89 176t-237 53h-43l37 156h64q68 0 132 17t116.5 53t84 88t31.5 122q0 86 -52 130t-150 44q-88 0 -159 -27.5t-122 -60.5l-45 148q27 18 65.5 36.5 t86 34t99.5 24.5t105 9q96 0 165 -24.5t114 -67.5t65.5 -101.5t20.5 -123.5q0 -135 -79 -230.5t-214 -148.5q35 -14 70.5 -40t63.5 -64t45.5 -88t17.5 -111q0 -109 -38 -198t-112 -152.5t-182.5 -98.5t-251.5 -35q-72 0 -132.5 10.5t-107.5 23.5t-79 27.5t-44 22.5z" />
<glyph unicode="4" horiz-adv-x="1163" d="M182 362l31 130q57 96 150.5 219t207 249.5t238.5 246.5t248 212h186l-217 -901h166l-37 -156h-166l-86 -362h-184l86 362h-623zM414 518h430l160 664q-74 -61 -154 -138t-158 -163t-149.5 -178.5t-128.5 -184.5z" />
<glyph unicode="5" horiz-adv-x="1163" d="M154 49l73 160q29 -16 99.5 -44t183.5 -28q84 0 156.5 21.5t126 61.5t84 99.5t30.5 133.5q0 94 -51 148t-127 82t-164 36t-162 12l64 180l58 169q28 83 52.5 166t47.5 173h663l-37 -159h-493q-12 -41 -30 -95l-36 -107l-35 -104l-26 -82q233 -31 351 -127t118 -274 q0 -104 -35 -196.5t-108.5 -160t-187.5 -106.5t-269 -39q-66 0 -124.5 10.5t-104.5 23.5t-76.5 26.5t-40.5 19.5z" />
<glyph unicode="6" horiz-adv-x="1163" d="M258 379q0 215 72.5 405.5t205 333t319.5 225t419 82.5h26l-22 -161h-10q-145 0 -263 -38t-210.5 -100.5t-157 -146.5t-100.5 -176q66 33 141.5 50t144.5 17q92 0 159 -27.5t110 -73.5t62.5 -107.5t19.5 -129.5q0 -102 -32 -203.5t-97.5 -181t-169 -129t-246.5 -49.5 q-180 0 -275.5 110t-95.5 300zM446 395q0 -129 46.5 -199.5t162.5 -70.5q80 0 141.5 34t103.5 89t63.5 123.5t21.5 140.5q0 98 -48 149.5t-159 51.5q-72 0 -144.5 -13.5t-146.5 -48.5q-20 -66 -30.5 -134.5t-10.5 -121.5z" />
<glyph unicode="7" horiz-adv-x="1163" d="M328 0q31 109 81 226.5t113.5 236.5t136 233.5t148.5 218t152.5 190.5t146.5 148h-674l39 166h891l-39 -164q-88 -76 -202.5 -211t-227.5 -304t-211 -359.5t-154 -380.5h-200z" />
<glyph unicode="8" horiz-adv-x="1163" d="M211 289q0 147 87 262t241 190q-125 98 -125 254q0 92 33.5 174t97 145.5t155 100.5t205.5 37q94 0 163 -26.5t112 -71.5t63.5 -101.5t20.5 -115.5q0 -141 -79 -247t-220 -175q70 -47 117.5 -116t47.5 -177q0 -90 -33.5 -172t-101 -144.5t-170 -99.5t-237.5 -37 q-102 0 -174 29t-117 74t-65.5 102.5t-20.5 114.5zM399 322q0 -41 10.5 -76t35 -62.5t65.5 -43t102 -15.5q68 0 128.5 20.5t105.5 57.5t70.5 88t25.5 112q0 100 -69.5 162t-192.5 105q-55 -25 -106.5 -62t-90.5 -82t-61.5 -97t-22.5 -107zM600 1014q0 -86 51 -141.5 t164 -92.5q51 25 98.5 57.5t83 74.5t57 92.5t21.5 111.5q0 31 -8 63.5t-29.5 58.5t-59.5 42t-95 16q-61 0 -112.5 -21.5t-89.5 -58t-59.5 -89t-21.5 -113.5z" />
<glyph unicode="9" horiz-adv-x="1163" d="M178 -2l35 162q6 -2 19 -2h18q143 0 257 35.5t201 99t148.5 147.5t101.5 183q-66 -33 -141.5 -49.5t-144.5 -16.5q-92 0 -159 26.5t-110 72.5t-63.5 107.5t-20.5 129.5q0 102 32 202.5t98.5 179.5t167 127t235.5 48q190 0 286.5 -109.5t96.5 -300.5q0 -219 -68.5 -409.5 t-197.5 -331.5t-315.5 -222t-422.5 -81h-21q-12 0 -32 2zM508 913q0 -98 49 -148t160 -50q72 0 144.5 13t146.5 48q18 61 28.5 130t10.5 136q0 113 -49.5 182.5t-159.5 69.5q-80 0 -141.5 -33.5t-103.5 -87t-63.5 -122t-21.5 -138.5z" />
<glyph unicode=":" horiz-adv-x="512" d="M338 911q0 74 44 114t102 40q57 0 91 -32t34 -93q0 -35 -13.5 -62.5t-34 -47t-47 -30t-53.5 -10.5q-57 0 -90 31t-33 90zM143 94q0 74 44 114t102 40q57 0 91 -32t34 -93q0 -35 -13.5 -62.5t-34 -47t-47 -30t-53.5 -10.5q-57 0 -90 31t-33 90z" />
<glyph unicode=";" horiz-adv-x="512" d="M10 -272q41 55 75 120.5t58.5 133t41 132t22.5 119.5h203q-10 -74 -35 -149.5t-60.5 -148t-81 -139t-94.5 -122.5zM338 911q0 74 44 114t102 40q57 0 91 -32t34 -93q0 -35 -13.5 -62.5t-34 -47t-47 -30t-53.5 -10.5q-57 0 -90 31t-33 90z" />
<glyph unicode="&#x3c;" horiz-adv-x="1163" d="M248 526l39 164l958 375l12 -168l-782 -299l637 -297l-86 -149z" />
<glyph unicode="=" horiz-adv-x="1163" d="M197 309l39 162h919l-39 -162h-919zM301 745l39 162h920l-39 -162h-920z" />
<glyph unicode="&#x3e;" horiz-adv-x="1163" d="M197 319l782 299l-637 297l86 150l778 -375l-39 -164l-958 -374z" />
<glyph unicode="?" horiz-adv-x="794" d="M242 94q0 74 44 114t101 40t91 -32t34 -93q0 -35 -13.5 -62.5t-34 -47t-47 -30t-52.5 -10.5q-57 0 -90 31t-33 90zM330 442q2 25 4 45.5t6 40.5q25 104 96.5 179t163.5 147l80 66q39 33 68.5 67.5t47 74.5t17.5 87q0 23 -6 49.5t-25.5 48t-54.5 35.5t-92 14 q-98 0 -163.5 -22.5t-102.5 -40.5l-21 147q49 29 134 50.5t177 21.5q96 0 162 -22.5t107 -61.5t58.5 -92t17.5 -115q0 -68 -25 -125t-65 -105t-89 -90t-100 -81q-76 -59 -138.5 -124t-84.5 -155q-4 -12 -5 -23.5t-1 -15.5h-166z" />
<glyph unicode="@" horiz-adv-x="1914" d="M231 344q0 205 69 404.5t202 355.5t325.5 252t442.5 96q334 0 514 -166t180 -489q0 -96 -21.5 -218t-81 -231.5t-165 -184.5t-271.5 -75q-129 0 -182 72q-47 -29 -110.5 -46.5t-135.5 -17.5q-154 0 -246 87t-92 261q0 117 40 226.5t116 192.5t184.5 133.5t247.5 50.5 q106 0 185 -18.5t120 -35.5l-149 -622q-10 -31 -10 -60q0 -25 13 -43t54 -18q86 0 147.5 50t102.5 129t60.5 173t19.5 182q0 113 -28.5 207t-93 162t-169 105.5t-256.5 37.5q-178 0 -331.5 -76.5t-266.5 -204.5t-176 -297t-63 -353q0 -137 39.5 -235.5t111.5 -162t172 -94.5 t221 -31q119 0 200 15.5t103 23.5l-14 -151q-18 -6 -53 -13.5t-79 -14.5t-94 -11t-100 -4q-147 0 -272 42t-216 125t-142.5 205.5t-51.5 284.5zM844 461q0 -111 46 -161t134 -50q111 0 188 41q0 35 4.5 58.5t10.5 45.5l116 482q-10 4 -44.5 8t-75.5 4q-88 0 -158 -35 t-119 -94.5t-75.5 -137t-26.5 -161.5z" />
<glyph unicode="A" horiz-adv-x="1310" d="M25 0q229 414 447 762l431 657h195q31 -154 56.5 -310.5t50 -328.5t46.5 -364l47 -416h-200q-10 92 -18.5 185.5t-18.5 179.5h-619l-200 -365h-217zM535 524h507q-16 166 -37.5 330t-50.5 338l-178 -269q-106 -166 -241 -399z" />
<glyph unicode="B" horiz-adv-x="1273" d="M176 23l330 1376q86 20 191.5 27.5t189.5 7.5q104 0 191 -17.5t149.5 -55.5t98.5 -99.5t36 -147.5q0 -125 -75 -220t-206 -142q88 -33 142.5 -100.5t54.5 -166.5q0 -141 -57.5 -237t-156.5 -154.5t-233.5 -83t-287.5 -24.5q-41 0 -89 2t-97.5 6t-96.5 11.5t-84 17.5z M406 160q23 -4 67.5 -7t114.5 -3q76 0 162 11t157.5 45t119.5 95t48 164q0 100 -71.5 149.5t-231.5 49.5h-248zM563 819h195q68 0 138.5 11.5t128.5 41t96 81t38 130.5q0 104 -77.5 145.5t-237.5 41.5q-53 0 -104.5 -4t-69.5 -9z" />
<glyph unicode="C" horiz-adv-x="1236" d="M258 520q0 184 58.5 352t166 297t259 206t337.5 77q160 0 255.5 -33t135.5 -61l-81 -164q-47 31 -128 58.5t-192 27.5q-141 0 -254 -66.5t-190.5 -172t-118.5 -237.5t-41 -261q0 -399 346 -400q74 0 132 10.5t103.5 23.5t79.5 30l62 29l24 -173q-25 -14 -64.5 -30.5 t-93 -30.5t-119 -23.5t-138.5 -9.5q-133 0 -234.5 39t-169 110.5t-101.5 173t-34 228.5z" />
<glyph unicode="D" horiz-adv-x="1423" d="M176 23l330 1378q86 20 182 26.5t182 6.5q315 0 471 -148.5t156 -400.5q0 -176 -55.5 -339t-172 -288t-297.5 -198.5t-433 -73.5q-86 0 -186.5 8.5t-176.5 28.5zM408 164q16 -4 55 -7t127 -3q162 0 292 54t220 151.5t139 231.5t49 294q0 180 -104.5 280.5t-331.5 100.5 q-154 0 -184 -9z" />
<glyph unicode="E" horiz-adv-x="1148" d="M170 0l340 1419h838l-39 -166h-641l-103 -428h570l-39 -161h-568l-120 -498h688l-39 -166h-887z" />
<glyph unicode="F" horiz-adv-x="1081" d="M170 0l340 1419h829l-39 -166h-632l-105 -434h561l-39 -162h-559l-157 -657h-199z" />
<glyph unicode="G" horiz-adv-x="1341" d="M258 520q0 184 58.5 352t167 297t261 206t342.5 77q94 0 163 -12.5t118 -28.5t80 -33.5t49 -29.5l-88 -162q-16 10 -45 26.5t-70 32t-94 25.5t-121 10q-145 0 -259.5 -66.5t-193.5 -172t-120 -237.5t-41 -261q0 -203 86 -302.5t272 -99.5q76 0 137.5 10.5t88.5 20.5 l122 520h195l-156 -647q-25 -14 -67.5 -27.5t-100 -23.5t-124 -16.5t-136.5 -6.5q-258 0 -391 148.5t-133 400.5z" />
<glyph unicode="H" horiz-adv-x="1402" d="M170 0l340 1419h199l-144 -594h658l143 594h199l-340 -1419h-199l158 659h-658l-157 -659h-199z" />
<glyph unicode="I" horiz-adv-x="546" d="M170 0l340 1419h199l-340 -1419h-199z" />
<glyph unicode="J" horiz-adv-x="995" d="M53 98l99 150q33 -33 98 -70t166 -37q74 0 125 18.5t88 58.5t62.5 103.5t47.5 153.5l228 944h198l-229 -962q-25 -98 -55.5 -187.5t-87 -156t-147.5 -105.5t-234 -39q-72 0 -130.5 13.5t-103.5 34t-77 42t-48 39.5z" />
<glyph unicode="K" horiz-adv-x="1265" d="M170 0l340 1419h199l-150 -620l195 153l204 172l188 164l144 131h250l-175 -156l-203 -178l-212 -180l-202 -166q63 -59 133.5 -147t139.5 -188.5t131 -205t110 -198.5h-222q-53 94 -114.5 192.5t-126 188.5t-132 169t-135.5 134l-163 -684h-199z" />
<glyph unicode="L" horiz-adv-x="1046" d="M170 0l340 1419h199l-301 -1253h628l-39 -166h-827z" />
<glyph unicode="M" horiz-adv-x="1742" d="M135 0l104 372l110 368l113 354l109 325h195q25 -90 52 -213l55 -257q28 -134 51.5 -267t40.5 -242l162 244l180 267l175 256l152 212h191q-35 -346 -93.5 -703.5t-127.5 -715.5h-199q61 295 112.5 572.5t90.5 541.5l-82 -117l-107 -157l-119 -180l-118 -180l-107 -162 l-80 -121h-159l-22 124l-30 161l-33 181l-35 179l-32 156q-14 71 -25 116q-86 -264 -167 -545l-160 -569h-197z" />
<glyph unicode="N" horiz-adv-x="1437" d="M170 0l340 1419h170q66 -111 134.5 -251t131 -287.5t115.5 -288.5t88 -254l254 1081h194l-337 -1419h-175l-88 270q-51 152 -111.5 307.5t-124 302t-124.5 255.5l-272 -1135h-195z" />
<glyph unicode="O" horiz-adv-x="1521" d="M258 510q0 168 51 337t154.5 303t257 218t358.5 84q113 0 208 -34t164 -101.5t106.5 -168.5t37.5 -237q0 -170 -52 -337.5t-154.5 -302t-256 -218.5t-358.5 -84q-115 0 -209 34t-162.5 101.5t-106.5 169t-38 236.5zM465 535q0 -182 79 -288t251 -106q137 0 247.5 66.5 t187.5 173t118 240t41 266.5q0 182 -79 287.5t-251 105.5q-139 0 -249 -66.5t-186.5 -173t-117.5 -239.5t-41 -266z" />
<glyph unicode="P" horiz-adv-x="1216" d="M170 0l336 1401q86 20 182 26.5t182 6.5q248 0 374 -94.5t126 -274.5q0 -139 -52 -240.5t-148.5 -167t-231.5 -97.5t-301 -32h-141l-127 -528h-199zM535 694h129q86 0 176 15.5t161.5 54.5t117.5 107.5t46 177.5q0 117 -86 167t-233 50q-145 0 -176 -9z" />
<glyph unicode="Q" horiz-adv-x="1521" d="M258 510q0 168 51 337t154.5 303t257 218t358.5 84q113 0 208 -34t164 -101.5t106.5 -168.5t37.5 -237q0 -158 -44 -313.5t-133 -285.5t-221 -220t-306 -115q-2 -6 -2 -14v-12q0 -41 31.5 -69.5t84 -49t121 -34t142.5 -21.5l-70 -156q-72 8 -160 24.5t-164.5 52.5 t-128 95.5t-51.5 153.5v10q0 6 2 16q-197 20 -317.5 155.5t-120.5 381.5zM465 535q0 -182 79 -288t251 -106q137 0 247.5 66.5t187.5 173t118 240t41 266.5q0 182 -79 287.5t-251 105.5q-139 0 -249 -66.5t-186.5 -173t-117.5 -239.5t-41 -266z" />
<glyph unicode="R" horiz-adv-x="1255" d="M170 0l336 1401q86 20 182 26.5t182 6.5q227 0 360.5 -92.5t133.5 -270.5q0 -180 -105.5 -302t-295.5 -175q25 -43 57.5 -109.5t67 -147.5t67.5 -168t57 -169h-202l-60 158q-31 80 -62.5 153.5t-63 138t-58.5 113.5q-27 -2 -53.5 -3t-53.5 -1h-157l-133 -559h-199z M541 721h121q84 0 172 12t160.5 48t118.5 100.5t46 171.5q0 115 -87 164t-226 49q-145 0 -176 -9z" />
<glyph unicode="S" horiz-adv-x="1067" d="M80 74l92 162q39 -27 123 -61t213 -34q63 0 125.5 13.5t112 44t80 81t30.5 123.5q0 51 -19.5 89t-53 68t-80.5 55l-101 55q-47 25 -95 53.5t-86 70.5t-61.5 99t-23.5 137q0 92 36 170t105.5 134.5t171 87t232.5 30.5q61 0 116.5 -9t101.5 -23.5t80.5 -30t51.5 -27.5 l-92 -156q-35 29 -112 52.5t-181 23.5q-66 0 -122 -13.5t-97 -42t-65.5 -72.5t-24.5 -105q0 -53 16 -89t45 -64t71 -50l91 -47q61 -31 115.5 -62.5t95.5 -75t64.5 -100.5t23.5 -139q0 -113 -44 -198t-121 -141t-182.5 -85t-228.5 -29q-82 0 -148.5 11.5t-116.5 28t-85 34 t-53 31.5z" />
<glyph unicode="T" horiz-adv-x="1144" d="M342 1253l39 166h1055l-39 -166h-428l-301 -1253h-199l301 1253h-428z" />
<glyph unicode="U" horiz-adv-x="1372" d="M274 377q0 45 8.5 100t18.5 103l201 839h198l-204 -852q-10 -39 -16.5 -86t-6.5 -88q0 -53 12.5 -98t42 -79t76.5 -53.5t115 -19.5q174 0 270 97.5t146 310.5l208 868h199l-213 -891q-29 -117 -66.5 -219t-107.5 -177t-181.5 -119t-285.5 -44q-106 0 -184 32t-129 86 t-76 129t-25 161z" />
<glyph unicode="V" horiz-adv-x="1284" d="M344 1419h205q33 -365 62.5 -653.5t70.5 -529.5q86 123 175 264l178 294l174 310l163 315h219l-220 -404l-213 -367l-211 -336q-105 -161 -216 -312h-194q-31 154 -57.5 310.5t-49 328.5t-44.5 363.5t-42 416.5z" />
<glyph unicode="W" horiz-adv-x="1884" d="M367 676q0 178 6 359.5t18 383.5h197q-14 -215 -22.5 -425t-8.5 -427q0 -158 6 -313q141 217 282 469l281 524h183q16 -274 45.5 -532t58.5 -461l128 252l133 288l133 309l128 316h211q-164 -406 -326.5 -756t-342.5 -663h-201q-35 217 -67.5 447.5t-53.5 502.5 l-273 -484q-134 -230 -286 -466h-201q-16 166 -22 332t-6 344z" />
<glyph unicode="X" horiz-adv-x="1247" d="M31 0l653 758l-289 661h219l215 -522l218 260q106 131 198 262h228q-123 -168 -271 -341l-291 -333l155 -374q77 -190 136 -371h-207q-47 143 -103 291.5t-126 302.5l-502 -594h-233z" />
<glyph unicode="Y" horiz-adv-x="1179" d="M340 1419h215q39 -166 87 -338t108 -331l273 331q138 174 245 338h227l-321 -419l-361 -431l-135 -569h-199l135 569q-80 215 -148.5 431t-125.5 419z" />
<glyph unicode="Z" horiz-adv-x="1157" d="M76 0l30 133q59 80 138 175l166 199l182 208l186 203l178 184l158 151h-702l39 166h954l-37 -157l-135 -127l-168 -167l-185 -193l-190 -207l-180 -208q-86 -102 -156 -194h766l-39 -166h-1005z" />
<glyph unicode="[" horiz-adv-x="667" d="M102 -379l478 1983h452l-35 -150h-274l-406 -1683h275l-37 -150h-453z" />
<glyph unicode="\" d="M342 1604h174l217 -1983h-178z" />
<glyph unicode="]" horiz-adv-x="667" d="M-80 -379l35 150h274l406 1683h-275l37 150h453l-477 -1983h-453z" />
<glyph unicode="^" horiz-adv-x="1163" d="M270 741l549 684h162l223 -702l-155 -68l-183 574l-456 -572z" />
<glyph unicode="_" horiz-adv-x="1024" d="M-90 -379l39 162h1024l-39 -162h-1024z" />
<glyph unicode="`" d="M475 1479l139 116l260 -327l-100 -88z" />
<glyph unicode="a" horiz-adv-x="1122" d="M205 356q0 137 46 268.5t138 234t231.5 165.5t325.5 63q55 0 129 -12t127 -41l-158 -643q-10 -47 -17 -90t-7 -90t8 -95t29 -104l-168 -24q-10 23 -20.5 50.5t-16.5 57.5q-45 -41 -121 -82t-186 -41q-90 0 -154.5 29t-105.5 80t-60.5 120.5t-19.5 153.5zM395 377 q0 -43 8.5 -87t30 -78t57 -55.5t93.5 -21.5q86 0 147.5 37t106.5 86q2 35 7 73t13 77l123 507q-10 4 -33.5 6.5t-42.5 2.5q-117 0 -211 -45t-160.5 -120t-102.5 -174t-36 -208z" />
<glyph unicode="b" horiz-adv-x="1144" d="M170 41l362 1515l199 33l-135 -567q47 29 108.5 49.5t131.5 20.5q88 0 154.5 -29t109.5 -79t64.5 -119.5t21.5 -149.5q0 -141 -45 -273.5t-137.5 -236t-230.5 -166t-324 -62.5q-31 0 -68 3.5t-75 11.5t-73.5 20.5t-62.5 28.5zM387 154q20 -4 47 -8.5t53 -4.5 q117 0 211.5 46t160 123t101 176.5t35.5 207.5q0 45 -9 88t-32.5 76t-63.5 52.5t-102 19.5q-61 0 -121.5 -21.5t-113.5 -60.5z" />
<glyph unicode="c" horiz-adv-x="931" d="M209 381q0 139 42 268t124 227.5t200.5 157t272.5 58.5q68 0 129 -9.5t117 -35.5l-72 -160q-33 18 -77 28.5t-114 10.5q-100 0 -180 -44t-136 -117t-86 -168t-30 -198q0 -53 11.5 -100t40 -83t76.5 -56.5t122 -20.5q37 0 78 7.5t76 17.5t62.5 21.5t39.5 21.5l17 -162 q-39 -25 -121 -48.5t-187 -23.5q-98 0 -173.5 30t-127 84t-78 129t-26.5 165z" />
<glyph unicode="d" horiz-adv-x="1128" d="M205 356q0 137 46 268.5t137 234t228.5 164.5t319.5 62q23 0 45.5 -2t46.5 -6l115 479l198 33l-288 -1198l-18.5 -90t-8.5 -90t8 -95t29 -104l-168 -24q-23 45 -35 108q-45 -41 -120.5 -82t-186.5 -41q-90 0 -155.5 28t-108.5 79t-63.5 121.5t-20.5 154.5zM395 377 q0 -47 10.5 -90t33 -77t60.5 -54.5t93 -20.5q86 0 146.5 36t105.5 83q2 33 7 70.5t15 83.5l123 512q-18 4 -40.5 5t-43.5 1q-117 0 -211 -45t-160.5 -121t-102.5 -175t-36 -208z" />
<glyph unicode="e" horiz-adv-x="1069" d="M209 354q0 143 43 276.5t123 236t194.5 163t259.5 60.5q84 0 144.5 -21.5t98.5 -58.5t56.5 -85t18.5 -100q0 -96 -35 -162.5t-92 -111.5t-134 -69.5t-160 -39t-168 -19.5t-161 -9q-2 -16 -2 -27v-16q0 -47 11.5 -89t42 -74t85 -50.5t142.5 -18.5q39 0 81 7.5t79.5 18.5 t67.5 22.5t42 21.5l17 -162q-41 -23 -132.5 -48.5t-214.5 -25.5q-104 0 -180 30t-127 82t-75.5 121.5t-24.5 147.5zM422 559q119 4 217 15.5t170 39t112 74.5t40 123q0 18 -7.5 38.5t-25 38t-48 29t-75.5 11.5q-72 0 -134.5 -31t-111.5 -81t-84 -116.5t-53 -140.5z" />
<glyph unicode="f" horiz-adv-x="761" d="M-31 -362q61 80 96 135t58.5 112.5t41.5 131.5l46 194l227 950q25 102 63 182t96 134.5t138 83t191 28.5q72 0 136 -14t97 -31l-76 -151q-16 8 -56 20t-118 12q-68 0 -114.5 -19.5t-79.5 -54t-52.5 -83.5t-33.5 -111l-23 -92h357l-37 -160h-357l-163 -676l-44 -186 q-18 -82 -43.5 -153.5t-67.5 -138t-114 -138.5z" />
<glyph unicode="g" horiz-adv-x="1134" d="M57 -303l72 160q47 -35 125 -56.5t164 -21.5q84 0 147.5 20.5t109.5 59.5t74.5 92t45.5 121l8 39q-41 -23 -110.5 -45.5t-143.5 -22.5q-166 0 -255 83t-89 232q0 137 45 268.5t137 234t229.5 164.5t321.5 62q29 0 64.5 -4t73.5 -11t74 -19.5t62 -28.5l-223 -932 q-27 -111 -65.5 -199t-106 -149t-174 -95t-266.5 -34q-88 0 -174.5 23.5t-145.5 58.5zM395 412q0 -111 48.5 -160t146.5 -49q82 0 150.5 29.5t105.5 56.5l149 622q-20 4 -46.5 8.5t-51.5 4.5q-111 0 -203 -42t-158.5 -113t-103.5 -164t-37 -193z" />
<glyph unicode="h" horiz-adv-x="1138" d="M160 0l375 1556l198 33l-131 -538q47 16 99.5 26t105.5 10q92 0 158.5 -25.5t107.5 -69.5t60.5 -106.5t19.5 -135.5q0 -90 -29 -205l-131 -545h-190l121 504l27.5 116.5t13.5 112.5q0 82 -45.5 136.5t-167.5 54.5q-49 0 -101.5 -9.5t-87.5 -25.5l-213 -889h-190z" />
<glyph unicode="i" horiz-adv-x="518" d="M160 0l256 1065h190l-256 -1065h-190zM461 1366q0 66 41 103.5t92 37.5q47 0 80 -29.5t33 -82.5q0 -61 -43 -99.5t-93 -38.5q-47 0 -78.5 29t-31.5 80z" />
<glyph unicode="j" horiz-adv-x="518" d="M-223 -348l43 158q23 -14 57.5 -22.5t75.5 -8.5q92 0 140 71.5t77 188.5l246 1026h190l-246 -1024q-29 -115 -62.5 -196t-83.5 -132t-119.5 -74.5t-170.5 -23.5q-35 0 -78.5 10.5t-68.5 26.5zM463 1366q0 66 41 103.5t92 37.5q47 0 80 -29.5t33 -82.5q0 -61 -43 -99.5 t-93 -38.5q-47 0 -78.5 29t-31.5 80z" />
<glyph unicode="k" horiz-adv-x="1067" d="M160 0l375 1556l198 33l-229 -948q68 49 139 108l136 115l119 110q54 52 89 91h225q-43 -53 -109 -119l-140 -132l-149 -128q-75 -61 -134 -104q55 -51 111.5 -122t108.5 -150t95 -159.5t72 -150.5h-207q-72 166 -171 305t-210 227l-129 -532h-190z" />
<glyph unicode="l" horiz-adv-x="573" d="M225 279q0 47 8.5 98t22.5 106l258 1073l199 33l-269 -1120l-20 -88q-10 -43 -10 -82q0 -70 33.5 -111t125.5 -51l-43 -155q-84 2 -142 25.5t-94 62.5t-52.5 92.5t-16.5 116.5z" />
<glyph unicode="m" horiz-adv-x="1703" d="M160 0l246 1024q92 29 201.5 46t195.5 17t145.5 -29.5t93.5 -78.5q20 14 56.5 32.5t82.5 35t100 28.5t112 12q90 0 152.5 -27.5t100 -74.5t54 -109.5t16.5 -132.5q0 -45 -7 -97t-19 -101l-131 -545h-191l121 504l23 105q13 58 14 116q0 39 -9.5 76t-31 63.5t-60.5 43 t-96 16.5q-66 0 -127 -26t-102 -52q4 -29 7 -56.5t3 -54.5q0 -47 -7 -95t-18 -95l-131 -545h-190l121 504l22 106q12 59 13 119q0 39 -8.5 75t-28 62.5t-52 42t-83.5 15.5t-99.5 -6.5t-81.5 -16.5l-217 -901h-190z" />
<glyph unicode="n" horiz-adv-x="1136" d="M160 0l246 1024q94 29 203.5 46t195.5 17q92 0 158.5 -25.5t107.5 -69.5t60.5 -106.5t19.5 -135.5q0 -47 -8 -99.5t-21 -105.5l-131 -545h-190l121 504l27.5 116.5t13.5 112.5q0 82 -45.5 136.5t-167.5 54.5q-51 0 -100.5 -6.5t-82.5 -16.5l-217 -901h-190z" />
<glyph unicode="o" horiz-adv-x="1144" d="M209 346q0 119 33.5 250t107.5 241.5t190.5 182.5t282.5 72q168 0 263.5 -99.5t95.5 -273.5q0 -119 -34 -250t-107.5 -241.5t-190.5 -182.5t-283 -72q-168 0 -263 99.5t-95 273.5zM399 362q0 -104 45 -165.5t156 -61.5q92 0 165 53.5t123 136.5t76.5 183t26.5 194 q0 104 -45 166t-155 62q-92 0 -165 -53.5t-123 -136.5t-77 -183.5t-27 -194.5z" />
<glyph unicode="p" horiz-adv-x="1126" d="M70 -379l336 1399q86 35 187 53.5t187 18.5q100 0 173 -29t120 -79t70.5 -118.5t23.5 -150.5q0 -141 -43 -273.5t-132 -235t-225 -163.5t-323 -61q-23 0 -49 2t-47 6l-88 -369h-190zM387 150q20 -4 44 -5.5t46 -1.5q117 0 209 45t156.5 122t99.5 176.5t35 207.5 q0 45 -10.5 88t-38 76t-74.5 52.5t-121 19.5q-51 0 -94 -9.5t-72 -17.5z" />
<glyph unicode="q" horiz-adv-x="1136" d="M205 356q0 137 46 268.5t138 234t231.5 165.5t325.5 63q57 0 132 -13t136 -46l-337 -1407h-191l98 412q-47 -25 -106.5 -42.5t-124.5 -17.5q-90 0 -155.5 28t-108.5 79t-63.5 121.5t-20.5 154.5zM395 377q0 -47 9.5 -90t32 -77t62.5 -54.5t101 -20.5q59 0 118.5 19.5 t108.5 56.5l170 702q-57 10 -92 11q-117 0 -211 -45t-160.5 -120t-102.5 -174t-36 -208z" />
<glyph unicode="r" horiz-adv-x="770" d="M160 0l246 1024q82 29 176 46t188 17q25 0 55.5 -2t60 -7t54.5 -10t37 -11l-55 -166q-41 16 -94.5 24.5t-102.5 8.5q-43 0 -85 -6.5t-73 -16.5l-217 -901h-190z" />
<glyph unicode="s" horiz-adv-x="851" d="M82 51l74 156q14 -8 39.5 -20.5t61.5 -24.5t79 -20.5t90 -8.5q43 0 87 8.5t78 26.5t55.5 50t21.5 79q0 31 -10.5 54.5t-33 44t-56 40t-81.5 43.5q-47 23 -86 45.5t-68.5 53t-46 72.5t-16.5 102q0 154 111 247t321 93q98 0 173 -19.5t104 -36.5l-72 -155q-29 16 -92 34.5 t-141 18.5q-39 0 -78 -8t-70.5 -27.5t-51 -51.5t-19.5 -77q0 -55 43 -91t129 -75q53 -25 95 -50.5t71.5 -57t45 -74.5t15.5 -103q0 -86 -33 -151.5t-91 -108.5t-138 -64.5t-174 -21.5q-70 0 -126 9.5t-98 21.5t-70 25.5t-42 21.5z" />
<glyph unicode="t" horiz-adv-x="804" d="M227 236q0 84 29 215l219 911l199 33l-80 -330h362l-38 -160h-363l-113 -471q-25 -96 -24 -168q0 -68 37 -97.5t123 -29.5q59 0 116.5 19.5t87.5 36.5l15 -162q-31 -18 -105 -40t-168 -22q-154 0 -225.5 68t-71.5 197z" />
<glyph unicode="u" horiz-adv-x="1134" d="M229 309q0 53 9.5 105.5t21.5 105.5l131 545h191l-121 -504q-10 -47 -26.5 -110.5t-16.5 -126.5q0 -37 7 -71t26.5 -59.5t52.5 -41t82 -15.5q88 0 154.5 38t111.5 89q2 33 6 68t14 76l158 657h191l-162 -674q-10 -47 -17.5 -91t-7.5 -91t8.5 -94t28.5 -103l-168 -24 q-10 23 -20.5 51.5t-16.5 60.5q-23 -20 -53.5 -42.5t-70.5 -41t-88 -31t-105 -12.5q-90 0 -150.5 27t-98.5 72t-54.5 106t-16.5 131z" />
<glyph unicode="v" horiz-adv-x="993" d="M264 1065h193q2 -100 9 -214t17.5 -227.5t24.5 -219t31 -191.5q61 78 127.5 183.5t128 221t112.5 232.5t82 215h193q-45 -135 -115 -280.5t-150.5 -286t-170 -269.5t-173.5 -229h-174q-25 104 -47 229t-40.5 261.5t-31 282t-16.5 292.5z" />
<glyph unicode="w" horiz-adv-x="1619" d="M281 1065h190q2 -96 6 -209t10.5 -226.5t14.5 -220t20 -188.5q63 88 126 194.5t119 217t104.5 221.5t82.5 211h172q0 -92 3.5 -197.5t10.5 -216t16 -220t22 -210.5q51 63 114.5 167t125 221.5t114.5 237.5t82 218h194q-45 -141 -114.5 -290.5t-150.5 -290t-168 -265.5 t-167 -219h-170q-23 178 -40 358.5t-21 366.5q-41 -92 -92 -190.5t-109 -193.5l-114 -183q-57 -88 -111 -158h-170q-43 211 -69.5 480.5t-30.5 584.5z" />
<glyph unicode="x" horiz-adv-x="976" d="M29 0l491 549l-264 516h211l184 -383l159 201q73 96 126 182h207q-88 -129 -194 -261l-216 -261l131 -268q66 -138 113 -275h-199q-31 92 -79 199l-95 204l-354 -403h-221z" />
<glyph unicode="y" horiz-adv-x="987" d="M-111 -340l66 156q20 -16 55 -27.5t78 -11.5q119 0 202 57t156 152q-76 248 -124 522t-58 557h195q2 -92 10 -201.5t23.5 -227.5t37 -236.5t50.5 -227.5q78 123 141 255t111.5 253t81 222.5t47.5 162.5h198q-23 -78 -63.5 -193.5t-99 -250t-131 -274.5t-158.5 -269 q-66 -96 -131.5 -181t-140.5 -147.5t-165 -98.5t-202 -36q-57 0 -106.5 14.5t-72.5 30.5z" />
<glyph unicode="z" horiz-adv-x="937" d="M72 0l28 123q61 90 156 200l196 218l199 204q98 96 172 160h-510l37 160h760l-33 -137l-161 -151l-211 -209l-212 -221q-101 -110 -161 -187h571l-37 -160h-794z" />
<glyph unicode="{" horiz-adv-x="675" d="M213 539l37 147q45 0 84 17.5t68.5 45t49 63.5t27.5 73l88 368q23 94 56.5 161t88 109t133.5 61.5t189 19.5h8l-36 -150q-55 0 -98.5 -7t-75 -29.5t-54 -62.5t-37.5 -104l-75 -315q-33 -135 -79 -211t-132 -113q43 -35 60 -83t17 -101q0 -35 -6 -69.5t-14 -69.5l-76 -316 q-6 -29 -10 -51t-4 -41q0 -66 43 -86t135 -24l-39 -150h-8q-147 0 -227 52.5t-80 174.5q0 47 16 123l88 369q8 31 8 59q0 57 -33.5 96.5t-111.5 43.5z" />
<glyph unicode="|" horiz-adv-x="571" d="M102 -379l478 1983h174l-478 -1983h-174z" />
<glyph unicode="}" horiz-adv-x="675" d="M-82 -379l37 150q57 0 99 7t74 29.5t53.5 61.5t37.5 104l76 316q33 135 79 210.5t132 112.5q-43 35 -60.5 83t-17.5 102q0 35 6 69.5t15 69.5l75 315l10.5 51.5t4.5 40.5q0 66 -43 86.5t-136 24.5l39 150h9q147 0 227 -52.5t80 -175.5q0 -47 -17 -123l-88 -368 q-8 -31 -8 -60q0 -57 34 -96t112 -43l-37 -147q-47 0 -86 -17.5t-68 -45t-48.5 -63.5t-27.5 -73l-88 -369q-23 -94 -56.5 -160.5t-87.5 -108.5t-133 -61.5t-190 -19.5h-8z" />
<glyph unicode="~" horiz-adv-x="1163" d="M221 492q16 45 44 95t69 93t95 70.5t124 27.5q72 0 118 -27.5t85 -56.5l84 -60q37 -28 92 -28q33 0 60.5 16.5t48 40t37 52t28.5 53.5l131 -41q-16 -45 -44 -95t-69 -93t-95 -71t-124 -28q-72 0 -118 28t-85 56l-84 61q-37 28 -92 27q-35 0 -61.5 -16t-48 -40t-36.5 -52 l-28 -53z" />
<glyph unicode="&#xa1;" horiz-adv-x="520" d="M63 -379l93 385q12 49 33.5 128t47 163t53 165t50.5 134h117q-16 -139 -38 -279.5t-63 -312.5l-92 -383h-201zM336 911q0 74 44 114t101 40t91 -32t34 -93q0 -35 -13 -62.5t-33.5 -47t-47.5 -29.5t-53 -10q-57 0 -90 30.5t-33 89.5z" />
<glyph unicode="&#xa2;" horiz-adv-x="1163" d="M330 461q0 111 32.5 219t98 199.5t162 157t223.5 87.5l69 295h166l-67 -284q49 -4 96 -15.5t90 -34.5l-70 -151q-33 18 -76.5 28.5t-111.5 10.5q-96 0 -175 -44t-134 -116t-86 -162t-31 -184q0 -49 11.5 -93t39 -77t73.5 -52.5t118 -19.5q37 0 76.5 6.5t74.5 16.5 t61.5 21.5t39.5 21.5l14 -158q-33 -23 -105.5 -44t-164.5 -26l-68 -286h-166l70 297q-260 57 -260 387z" />
<glyph unicode="&#xa3;" horiz-adv-x="1163" d="M264 0l109 290q51 142 86 290l8 30h-191l37 154h191l41 170q37 154 86 253t115.5 156.5t150.5 80t188 22.5q106 0 166 -19.5t107 -46.5l-86 -153q-47 25 -97.5 39t-113.5 14q-59 0 -108.5 -16.5t-89.5 -56.5t-71.5 -105.5t-56.5 -163.5l-41 -174h387l-37 -154h-387 l-4 -16q-25 -104 -60.5 -215t-76.5 -215h594l-39 -164h-807z" />
<glyph unicode="&#xa4;" horiz-adv-x="1163" d="M252 342l149 150q-57 90 -57 219q0 127 57 217l-149 151l119 119l151 -154q96 59 217 60q119 0 215 -60l154 154l119 -119l-152 -151q59 -90 60 -217q0 -127 -60 -217l152 -152l-119 -119l-154 152q-96 -57 -215 -58q-123 0 -217 58l-151 -152zM498 711 q0 -59 19.5 -105.5t52 -80t76.5 -51t93 -17.5t93.5 17.5t77 51t52 79.5t19.5 106q0 57 -19.5 104t-52 81t-77 51.5t-93.5 17.5t-93 -17.5t-76.5 -51.5t-52 -81t-19.5 -104z" />
<glyph unicode="&#xa5;" horiz-adv-x="1163" d="M207 217l35 145h331l50 209h-330l35 146h278q-145 360 -227 702h196q14 -72 35 -151.5l44.5 -161.5t51 -163t58.5 -152l121 146l126 161l121 164q58 82 105 157h215q-123 -178 -268.5 -361.5t-286.5 -340.5h279l-35 -146h-334l-49 -209h334l-35 -145h-334l-51 -217h-185 l52 217h-332z" />
<glyph unicode="&#xa6;" horiz-adv-x="571" d="M102 -379l189 785h174l-189 -785h-174zM391 819l189 785h174l-189 -785h-174z" />
<glyph unicode="&#xa7;" horiz-adv-x="1003" d="M70 -152l73 150q39 -23 113 -45.5t172 -22.5q135 0 203.5 47.5t68.5 124.5q0 39 -13 66t-36.5 45t-58.5 33l-78 30q-57 20 -107.5 43t-88 57t-60 84t-22.5 124q0 111 72.5 202t176.5 148q-59 59 -59 166q0 84 33 149.5t92 110.5t142 68.5t181 23.5q104 0 179 -21.5 t123 -44.5l-72 -147q-35 16 -93.5 37.5t-150.5 21.5q-109 0 -178.5 -39.5t-69.5 -130.5q0 -59 39 -91.5t131 -65.5q57 -23 107.5 -45.5t87.5 -55t58.5 -82t21.5 -124.5q0 -117 -72 -204t-178 -147q29 -27 54.5 -70.5t25.5 -121.5q0 -74 -31 -137.5t-91 -109.5t-148.5 -71.5 t-202.5 -25.5q-111 0 -198 19t-146 52zM414 606q0 -41 19.5 -69.5t51 -51t74.5 -41t92 -36.5q12 -4 21.5 -8.5l17.5 -8.5q35 16 69 41t60.5 57.5t43 70.5t16.5 81q0 39 -18.5 68.5t-50.5 52t-76 41l-93 37.5q-27 10 -35 16q-35 -16 -68.5 -42t-61 -57.5t-45 -69.5t-17.5 -81 z" />
<glyph unicode="&#xa8;" d="M408 1366q0 61 40.5 99t88.5 38q45 0 76.5 -29.5t31.5 -78.5q0 -59 -42 -96t-89 -37q-45 0 -75.5 28.5t-30.5 75.5zM797 1366q0 61 41 99t88 38q45 0 76.5 -29.5t31.5 -78.5q0 -59 -42 -96t-89 -37q-45 0 -75.5 28.5t-30.5 75.5z" />
<glyph unicode="&#xa9;" horiz-adv-x="1675" d="M295 711q0 174 57.5 312t153.5 233.5t223 145.5t266 50t266.5 -50t223.5 -145.5t153.5 -233.5t57.5 -312q0 -176 -57.5 -313.5t-153.5 -232.5t-223 -145.5t-267 -50.5q-139 0 -266 50.5t-223 145.5t-153.5 232.5t-57.5 313.5zM444 711q0 -135 41 -247t114 -191.5 t174 -123t222 -43.5t222.5 43.5t174 123t113.5 191t41 247.5q0 135 -41 246.5t-113.5 191.5t-174 123t-222.5 43t-222 -43t-174 -123t-114 -191.5t-41 -246.5zM627 711q0 100 31.5 178t85 132t125 83t151.5 29q53 0 97 -8.5t77 -19.5t54.5 -22.5t29.5 -17.5l-47 -123 q-25 14 -79 33.5t-126 19.5q-104 0 -174 -71.5t-70 -212.5q0 -129 63.5 -209t186.5 -80q80 0 132.5 17.5t80.5 31.5l39 -123q-23 -12 -93.5 -36.5t-170.5 -24.5q-88 0 -160 28.5t-124 82t-80.5 132.5t-28.5 181z" />
<glyph unicode="&#xaa;" horiz-adv-x="858" d="M328 946q0 94 32.5 184.5t98 161t164 114.5t231.5 44q37 0 91 -9t99 -28l-112 -416q-18 -66 -19 -127q0 -51 10.5 -86.5t26.5 -78.5l-141 -25q-8 10 -17.5 30.5t-13.5 41.5q-29 -29 -79 -52.5t-119 -23.5q-133 0 -192.5 74.5t-59.5 195.5zM477 961q0 -31 5 -60 t20.5 -51.5t42 -35.5t67.5 -13q45 0 84 22.5t70 55.5q0 31 7 66.5t13 62.5l82 311q-4 2 -15 4t-28 2q-78 0 -142.5 -29.5t-110.5 -81t-70.5 -116.5t-24.5 -137z" />
<glyph unicode="&#xab;" horiz-adv-x="1030" d="M201 594l415 440l119 -71l-321 -390l155 -385l-127 -59zM627 594l415 440l119 -71l-321 -390l155 -385l-127 -59z" />
<glyph unicode="&#xac;" horiz-adv-x="1163" d="M274 641l39 162h920l-168 -699h-172l129 537h-748z" />
<glyph unicode="&#xad;" horiz-adv-x="608" d="M223 702h496l-41 -178h-496z" />
<glyph unicode="&#xae;" horiz-adv-x="1675" d="M295 711q0 174 57.5 312t153.5 233.5t223 145.5t266 50t266.5 -50t223.5 -145.5t153.5 -233.5t57.5 -312q0 -176 -57.5 -313.5t-153.5 -232.5t-223 -145.5t-267 -50.5q-139 0 -266 50.5t-223 145.5t-153.5 232.5t-57.5 313.5zM444 711q0 -135 41 -247t114 -191.5 t174 -123t222 -43.5t222.5 43.5t174 123t113.5 191t41 247.5q0 135 -41 246.5t-113.5 191.5t-174 123t-222.5 43t-222 -43t-174 -123t-114 -191.5t-41 -246.5zM709 303v795q55 12 116.5 18t112.5 6q178 0 269 -64.5t91 -199.5q0 -76 -39.5 -132t-113.5 -87l47 -61l56 -81 q30 -44 57.5 -94.5t50.5 -99.5h-158q-47 92 -105.5 175t-101.5 132h-137v-307h-145zM854 729h78q92 0 153.5 25.5t61.5 105.5q0 76 -58.5 105.5t-140.5 29.5q-23 0 -47 -1t-47 -3v-262z" />
<glyph unicode="&#xaf;" d="M416 1309l35 147h573l-35 -147h-573z" />
<glyph unicode="&#xb0;" horiz-adv-x="688" d="M315 1305q0 66 23.5 119t62.5 89.5t91.5 56t109.5 19.5t109.5 -19.5t91.5 -56t62.5 -90t23.5 -118.5q0 -66 -23.5 -119t-62.5 -90t-91.5 -56.5t-109.5 -19.5t-109.5 19.5t-91.5 56.5t-62.5 90t-23.5 119zM453 1305q0 -72 44 -114t105 -42t105.5 42t44.5 114t-44 113.5 t-106 41.5q-61 0 -105 -41.5t-44 -113.5z" />
<glyph unicode="&#xb1;" horiz-adv-x="1163" d="M117 0l39 162h919l-39 -162h-919zM283 686l39 162h372l103 422h174l-103 -422h373l-39 -162h-373l-96 -401h-172l94 401h-372z" />
<glyph unicode="&#xb2;" horiz-adv-x="743" d="M258 645q8 74 32.5 128t61.5 97t84 78t101 68l93 59q40 27 66.5 51.5t40 52t13.5 62.5q0 43 -30 63.5t-71 20.5q-86 0 -136 -29.5t-77 -52.5l-49 100q41 39 112.5 74t166.5 35q117 0 173 -54.5t56 -146.5q0 -59 -27.5 -108t-70.5 -90t-95 -75l-98 -63l-94 -61 q-51 -33 -70 -80h387l-30 -129h-539z" />
<glyph unicode="&#xb3;" horiz-adv-x="743" d="M236 684l55 115q35 -16 85 -30.5t103 -14.5q43 0 83 6t71 23.5t50 46t19 71.5q0 57 -53 82t-141 25h-43l29 114h51q29 0 64.5 6.5t66.5 20.5t52.5 36.5t21.5 57.5q0 47 -28 65.5t-87 18.5q-55 0 -107.5 -16.5t-85.5 -32.5l-28 106q18 12 48 23.5t65.5 22t72.5 16.5t70 6 q121 0 171 -49t50 -119q0 -82 -42 -131t-116 -84q49 -20 81 -59t32 -105q0 -135 -102.5 -205.5t-268.5 -70.5q-82 0 -140 16t-99 39z" />
<glyph unicode="&#xb4;" d="M541 1288l323 309l105 -147l-346 -262z" />
<glyph unicode="&#xb5;" horiz-adv-x="1179" d="M70 -379l346 1444h190l-121 -504q-10 -47 -26.5 -110.5t-16.5 -126.5q0 -37 7.5 -71t28 -59.5t53 -41t85.5 -15.5q78 0 142.5 25.5t120.5 73.5q0 53 5 104t19 109l148 616h190l-151 -633l-19 -88q-8 -41 -8 -76q0 -53 25.5 -88t91.5 -45l-43 -153q-86 2 -137.5 29.5 t-81.5 78.5q-74 -57 -164 -83.5t-191 -26.5q-63 0 -118.5 25.5t-84.5 72.5q-8 -53 -21 -117.5t-30 -128.5l-51 -211h-188z" />
<glyph unicode="&#xb6;" horiz-adv-x="1339" d="M317 868q0 154 70 261.5t181.5 175t250.5 98.5t279 31q86 0 182 -7.5t174 -27.5l-426 -1778h-160l396 1645q-51 10 -158 10h-36q-19 0 -32 -2l-397 -1653h-160l219 916q-207 14 -295 100t-88 231z" />
<glyph unicode="&#xb7;" horiz-adv-x="512" d="M260 586q0 74 44 114t102 40q57 0 91 -32t34 -93q0 -35 -13.5 -62.5t-34 -47t-47 -30t-53.5 -10.5q-57 0 -90 31t-33 90z" />
<glyph unicode="&#xb8;" d="M70 -356l47 112q16 -8 42.5 -15t65.5 -7q35 0 57.5 11t22.5 40q0 25 -16.5 37t-55.5 31l-12 6q12 20 31 48l37 54q18 27 35 48l24 32h131l-44 -58q-28 -36 -44 -61q41 -23 61.5 -49.5t20.5 -73.5q0 -92 -63.5 -139t-173.5 -47q-59 0 -99 9.5t-67 21.5z" />
<glyph unicode="&#xb9;" horiz-adv-x="743" d="M412 1272q94 29 177 70.5t146 93.5h103l-191 -791h-145l143 594q-53 -29 -113.5 -50.5t-101.5 -33.5z" />
<glyph unicode="&#xba;" horiz-adv-x="921" d="M338 934q0 82 24.5 173t79 168t141.5 127t212 50q123 0 193.5 -68.5t70.5 -193.5q0 -82 -24.5 -173t-79 -168t-141.5 -127t-212 -50q-123 0 -193.5 68.5t-70.5 193.5zM492 946q0 -66 32.5 -106.5t104.5 -40.5q66 0 117 35.5t86.5 91t54 123t18.5 129.5q0 66 -32.5 106.5 t-104.5 40.5q-66 0 -117 -36t-87 -91t-54 -123t-18 -129z" />
<glyph unicode="&#xbb;" horiz-adv-x="1030" d="M147 201l322 389l-156 385l127 59l242 -465l-416 -440zM573 201l322 389l-156 385l127 59l242 -465l-416 -440z" />
<glyph unicode="&#xbc;" horiz-adv-x="1798" d="M412 1272q94 29 177 70.5t146 93.5h103l-191 -791h-145l143 594q-53 -29 -113.5 -50.5t-101.5 -33.5zM405 0l1124 1419h195l-1124 -1419h-195zM1167 195l23 94q33 55 89 121.5t125.5 136t145.5 134t148 114.5h133l-117 -486h103l-29 -114h-103l-45 -191h-139l45 191h-379 zM1333 309h242l78 324l-83 -72q-44 -39 -87 -82t-82 -86t-68 -84z" />
<glyph unicode="&#xbd;" horiz-adv-x="1798" d="M412 1272q94 29 177 70.5t146 93.5h103l-191 -791h-145l143 594q-53 -29 -113.5 -50.5t-101.5 -33.5zM362 0l1124 1419h195l-1124 -1419h-195zM1157 4q8 74 32.5 128t61.5 97t84 78t101 68l93 59q40 27 66.5 51.5t40 52t13.5 62.5q0 43 -30 63.5t-71 20.5 q-86 0 -136 -29.5t-77 -52.5l-49 100q41 39 112.5 74t166.5 35q117 0 173 -54.5t56 -146.5q0 -59 -27.5 -108t-70.5 -90t-95 -75l-98 -63l-94 -61q-51 -33 -70 -80h387l-30 -129h-539z" />
<glyph unicode="&#xbe;" horiz-adv-x="1798" d="M236 684l55 115q35 -16 85 -30.5t103 -14.5q43 0 83 6t71 23.5t50 46t19 71.5q0 57 -53 82t-141 25h-43l29 114h51q29 0 64.5 6.5t66.5 20.5t52.5 36.5t21.5 57.5q0 47 -28 65.5t-87 18.5q-55 0 -107.5 -16.5t-85.5 -32.5l-28 106q18 12 48 23.5t65.5 22t72.5 16.5t70 6 q121 0 171 -49t50 -119q0 -82 -42 -131t-116 -84q49 -20 81 -59t32 -105q0 -135 -102.5 -205.5t-268.5 -70.5q-82 0 -140 16t-99 39zM428 0l1124 1419h195l-1124 -1419h-195zM1167 195l23 94q33 55 89 121.5t125.5 136t145.5 134t148 114.5h133l-117 -486h103l-29 -114h-103 l-45 -191h-139l45 191h-379zM1333 309h242l78 324l-83 -72q-44 -39 -87 -82t-82 -86t-68 -84z" />
<glyph unicode="&#xbf;" horiz-adv-x="794" d="M84 -106q0 68 19.5 122t54.5 100t82 88t102 85q68 53 129 116.5t84 153.5q4 12 5 22.5t1 14.5h166q-2 -25 -4 -44.5t-6 -39.5q-25 -104 -95.5 -179t-148.5 -134l-72 -59q-35 -30 -63.5 -63.5t-46 -72.5t-17.5 -86q0 -23 6.5 -49.5t26 -48t54 -35.5t92.5 -14 q98 0 163.5 22.5t102.5 40.5l20 -147q-49 -29 -134 -50.5t-177 -21.5q-96 0 -161.5 22.5t-106.5 60.5t-58.5 89.5t-17.5 106.5zM543 911q0 74 44 114t101 40t91 -32t34 -93q0 -35 -13.5 -62.5t-34 -47t-47 -29.5t-52.5 -10q-57 0 -90 30.5t-33 89.5z" />
<glyph unicode="&#xc0;" horiz-adv-x="1310" d="M25 0q229 414 447 762l431 657h195q31 -154 56.5 -310.5t50 -328.5t46.5 -364l47 -416h-200q-10 92 -18.5 185.5t-18.5 179.5h-619l-200 -365h-217zM535 524h507q-16 166 -37.5 330t-50.5 338l-178 -269q-106 -166 -241 -399zM803 1798l139 116l260 -327l-100 -88z" />
<glyph unicode="&#xc1;" horiz-adv-x="1310" d="M25 0q229 414 447 762l431 657h195q31 -154 56.5 -310.5t50 -328.5t46.5 -364l47 -416h-200q-10 92 -18.5 185.5t-18.5 179.5h-619l-200 -365h-217zM535 524h507q-16 166 -37.5 330t-50.5 338l-178 -269q-106 -166 -241 -399zM867 1607l323 309l105 -147l-346 -262z" />
<glyph unicode="&#xc2;" horiz-adv-x="1310" d="M25 0q229 414 447 762l431 657h195q31 -154 56.5 -310.5t50 -328.5t46.5 -364l47 -416h-200q-10 92 -18.5 185.5t-18.5 179.5h-619l-200 -365h-217zM535 524h507q-16 166 -37.5 330t-50.5 338l-178 -269q-106 -166 -241 -399zM762 1609l332 285l217 -303l-90 -84 l-162 178l-229 -168z" />
<glyph unicode="&#xc3;" horiz-adv-x="1310" d="M25 0q229 414 447 762l431 657h195q31 -154 56.5 -310.5t50 -328.5t46.5 -364l47 -416h-200q-10 92 -18.5 185.5t-18.5 179.5h-619l-200 -365h-217zM535 524h507q-16 166 -37.5 330t-50.5 338l-178 -269q-106 -166 -241 -399zM711 1634q41 86 97 132t148 46 q41 0 73 -14.5t61 -30.5q31 -16 55 -26.5t49 -10.5q43 0 71.5 32t51.5 66l96 -59q-41 -86 -97 -132t-149 -46q-41 0 -72.5 14t-60.5 31q-31 16 -55.5 26.5t-48.5 10.5q-43 0 -71.5 -32t-51.5 -67z" />
<glyph unicode="&#xc4;" horiz-adv-x="1310" d="M25 0q229 414 447 762l431 657h195q31 -154 56.5 -310.5t50 -328.5t46.5 -364l47 -416h-200q-10 92 -18.5 185.5t-18.5 179.5h-619l-200 -365h-217zM535 524h507q-16 166 -37.5 330t-50.5 338l-178 -269q-106 -166 -241 -399zM750 1685q0 61 40.5 99t88.5 38 q45 0 76.5 -29.5t31.5 -78.5q0 -59 -42 -96t-89 -37q-45 0 -75.5 28.5t-30.5 75.5zM1139 1685q0 61 41 99t88 38q45 0 76.5 -29.5t31.5 -78.5q0 -59 -42 -96t-89 -37q-45 0 -75.5 28.5t-30.5 75.5z" />
<glyph unicode="&#xc5;" horiz-adv-x="1310" d="M25 0q217 391 424 725l409 631q-29 27 -46 65.5t-17 87.5t17 87t46 66t67 42t81 14t80.5 -14t66.5 -42t46.5 -65.5t17.5 -87.5q0 -63 -28 -109t-73 -73q27 -143 49.5 -289.5t44 -308.5t42.5 -341l46 -388h-200q-10 92 -18.5 185.5t-18.5 179.5h-619l-200 -365h-217z M535 524h507q-16 166 -37.5 330t-50.5 338l-178 -269q-106 -166 -241 -399zM897 1509q0 -53 32 -82.5t77 -29.5t76.5 29.5t31.5 82.5t-31.5 83t-76.5 30t-77 -30t-32 -83z" />
<glyph unicode="&#xc6;" horiz-adv-x="1908" d="M10 0l315 417l299 369l288 331l284 302h911l-39 -166h-610l-102 -428h538l-39 -161h-536l-121 -498h657l-38 -166h-854l86 365h-543l-136 -183l-132 -182h-228zM631 524h456l177 731l-320 -351q-159 -183 -313 -380z" />
<glyph unicode="&#xc7;" horiz-adv-x="1236" d="M258 520q0 184 58.5 352t166 297t259 206t337.5 77q160 0 255.5 -33t135.5 -61l-81 -164q-47 31 -128 58.5t-192 27.5q-141 0 -254 -66.5t-190.5 -172t-118.5 -237.5t-41 -261q0 -399 346 -400q74 0 132 10.5t103.5 23.5t79.5 30l62 29l24 -173q-25 -14 -64.5 -30.5 t-93 -30.5t-119 -23.5t-138.5 -9.5h-11q-10 -10 -17 -22.5t-15 -24.5q41 -23 61.5 -49.5t20.5 -73.5q0 -92 -63.5 -139t-174.5 -47q-59 0 -99 9t-67 22l47 112q16 -8 43 -15t66 -7q35 0 57.5 11t22.5 40q0 25 -16.5 37t-55.5 31l-12 6q14 25 36.5 59.5t45.5 63.5 q-205 35 -306.5 175t-101.5 363z" />
<glyph unicode="&#xc8;" horiz-adv-x="1148" d="M170 0l340 1419h838l-39 -166h-641l-103 -428h570l-39 -161h-568l-120 -498h688l-39 -166h-887zM737 1798l139 116l260 -327l-100 -88z" />
<glyph unicode="&#xc9;" horiz-adv-x="1148" d="M170 0l340 1419h838l-39 -166h-641l-103 -428h570l-39 -161h-568l-120 -498h688l-39 -166h-887zM801 1607l323 309l105 -147l-346 -262z" />
<glyph unicode="&#xca;" horiz-adv-x="1148" d="M170 0l340 1419h838l-39 -166h-641l-103 -428h570l-39 -161h-568l-120 -498h688l-39 -166h-887zM698 1609l332 285l217 -303l-90 -84l-162 178l-229 -168z" />
<glyph unicode="&#xcb;" horiz-adv-x="1148" d="M170 0l340 1419h838l-39 -166h-641l-103 -428h570l-39 -161h-568l-120 -498h688l-39 -166h-887zM684 1685q0 61 40.5 99t88.5 38q45 0 76.5 -29.5t31.5 -78.5q0 -59 -42 -96t-89 -37q-45 0 -75.5 28.5t-30.5 75.5zM1073 1685q0 61 41 99t88 38q45 0 76.5 -29.5 t31.5 -78.5q0 -59 -42 -96t-89 -37q-45 0 -75.5 28.5t-30.5 75.5z" />
<glyph unicode="&#xcc;" horiz-adv-x="546" d="M170 0l340 1419h199l-340 -1419h-199zM422 1798l139 116l260 -327l-100 -88z" />
<glyph unicode="&#xcd;" horiz-adv-x="546" d="M170 0l340 1419h199l-340 -1419h-199zM486 1607l323 309l105 -147l-346 -262z" />
<glyph unicode="&#xce;" horiz-adv-x="546" d="M170 0l340 1419h199l-340 -1419h-199zM381 1609l332 285l217 -303l-90 -84l-162 178l-229 -168z" />
<glyph unicode="&#xcf;" horiz-adv-x="546" d="M170 0l340 1419h199l-340 -1419h-199zM369 1685q0 61 40.5 99t88.5 38q45 0 76.5 -29.5t31.5 -78.5q0 -59 -42 -96t-89 -37q-45 0 -75.5 28.5t-30.5 75.5zM758 1685q0 61 41 99t88 38q45 0 76.5 -29.5t31.5 -78.5q0 -59 -42 -96t-89 -37q-45 0 -75.5 28.5t-30.5 75.5z " />
<glyph unicode="&#xd0;" horiz-adv-x="1462" d="M203 664l37 153h166l139 584q86 20 182 26.5t182 6.5q315 0 471 -148.5t156 -400.5q0 -176 -55.5 -339t-172 -288t-298 -198.5t-432.5 -73.5q-86 0 -186.5 8t-176.5 29l154 641h-166zM446 164q16 -4 55.5 -7t127.5 -3q162 0 292 54t220 151.5t139 231.5t49 294 q0 180 -104.5 280.5t-331.5 100.5q-154 0 -184 -9l-107 -440h266l-37 -153h-266z" />
<glyph unicode="&#xd1;" horiz-adv-x="1437" d="M170 0l340 1419h170q66 -111 134.5 -251t131 -287.5t115.5 -288.5t88 -254l254 1081h194l-337 -1419h-175l-88 270q-51 152 -111.5 307.5t-124 302t-124.5 255.5l-272 -1135h-195zM772 1634q41 86 97 132t148 46q41 0 73 -14.5t61 -30.5q31 -16 55 -26.5t49 -10.5 q43 0 71.5 32t51.5 66l96 -59q-41 -86 -97 -132t-149 -46q-41 0 -72.5 14t-60.5 31q-31 16 -55.5 26.5t-48.5 10.5q-43 0 -71.5 -32t-51.5 -67z" />
<glyph unicode="&#xd2;" horiz-adv-x="1521" d="M258 510q0 168 51 337t154.5 303t257 218t358.5 84q113 0 208 -34t164 -101.5t106.5 -168.5t37.5 -237q0 -170 -52 -337.5t-154.5 -302t-256 -218.5t-358.5 -84q-115 0 -209 34t-162.5 101.5t-106.5 169t-38 236.5zM465 535q0 -182 79 -288t251 -106q137 0 247.5 66.5 t187.5 173t118 240t41 266.5q0 182 -79 287.5t-251 105.5q-139 0 -249 -66.5t-186.5 -173t-117.5 -239.5t-41 -266zM905 1798l139 116l260 -327l-100 -88z" />
<glyph unicode="&#xd3;" horiz-adv-x="1521" d="M258 510q0 168 51 337t154.5 303t257 218t358.5 84q113 0 208 -34t164 -101.5t106.5 -168.5t37.5 -237q0 -170 -52 -337.5t-154.5 -302t-256 -218.5t-358.5 -84q-115 0 -209 34t-162.5 101.5t-106.5 169t-38 236.5zM465 535q0 -182 79 -288t251 -106q137 0 247.5 66.5 t187.5 173t118 240t41 266.5q0 182 -79 287.5t-251 105.5q-139 0 -249 -66.5t-186.5 -173t-117.5 -239.5t-41 -266zM969 1607l323 309l105 -147l-346 -262z" />
<glyph unicode="&#xd4;" horiz-adv-x="1521" d="M258 510q0 168 51 337t154.5 303t257 218t358.5 84q113 0 208 -34t164 -101.5t106.5 -168.5t37.5 -237q0 -170 -52 -337.5t-154.5 -302t-256 -218.5t-358.5 -84q-115 0 -209 34t-162.5 101.5t-106.5 169t-38 236.5zM465 535q0 -182 79 -288t251 -106q137 0 247.5 66.5 t187.5 173t118 240t41 266.5q0 182 -79 287.5t-251 105.5q-139 0 -249 -66.5t-186.5 -173t-117.5 -239.5t-41 -266zM864 1609l332 285l217 -303l-90 -84l-162 178l-229 -168z" />
<glyph unicode="&#xd5;" horiz-adv-x="1521" d="M258 510q0 168 51 337t154.5 303t257 218t358.5 84q113 0 208 -34t164 -101.5t106.5 -168.5t37.5 -237q0 -170 -52 -337.5t-154.5 -302t-256 -218.5t-358.5 -84q-115 0 -209 34t-162.5 101.5t-106.5 169t-38 236.5zM465 535q0 -182 79 -288t251 -106q137 0 247.5 66.5 t187.5 173t118 240t41 266.5q0 182 -79 287.5t-251 105.5q-139 0 -249 -66.5t-186.5 -173t-117.5 -239.5t-41 -266zM813 1634q41 86 97 132t148 46q41 0 73 -14.5t61 -30.5q31 -16 55 -26.5t49 -10.5q43 0 71.5 32t51.5 66l96 -59q-41 -86 -97 -132t-149 -46q-41 0 -72.5 14 t-60.5 31q-31 16 -55.5 26.5t-48.5 10.5q-43 0 -71.5 -32t-51.5 -67z" />
<glyph unicode="&#xd6;" horiz-adv-x="1521" d="M258 510q0 168 51 337t154.5 303t257 218t358.5 84q113 0 208 -34t164 -101.5t106.5 -168.5t37.5 -237q0 -170 -52 -337.5t-154.5 -302t-256 -218.5t-358.5 -84q-115 0 -209 34t-162.5 101.5t-106.5 169t-38 236.5zM465 535q0 -182 79 -288t251 -106q137 0 247.5 66.5 t187.5 173t118 240t41 266.5q0 182 -79 287.5t-251 105.5q-139 0 -249 -66.5t-186.5 -173t-117.5 -239.5t-41 -266zM852 1685q0 61 40.5 99t88.5 38q45 0 76.5 -29.5t31.5 -78.5q0 -59 -42 -96t-89 -37q-45 0 -75.5 28.5t-30.5 75.5zM1241 1685q0 61 41 99t88 38 q45 0 76.5 -29.5t31.5 -78.5q0 -59 -42 -96t-89 -37q-45 0 -75.5 28.5t-30.5 75.5z" />
<glyph unicode="&#xd7;" horiz-adv-x="1163" d="M242 317l372 301l-223 295l129 105l223 -295l369 301l96 -123l-372 -301l223 -295l-129 -104l-223 295l-369 -301z" />
<glyph unicode="&#xd8;" horiz-adv-x="1521" d="M217 14l133 152q-92 131 -92 344q0 168 51 337t154.5 303t257 218t358.5 84q188 0 320 -94l121 137l114 -88l-133 -152q45 -66 69.5 -149.5t24.5 -194.5q0 -170 -52 -337.5t-154.5 -302t-256 -218.5t-358.5 -84q-193 0 -321 92l-119 -135zM465 535q0 -59 6 -112.5 t23 -94.5l778 886q-78 66 -213 66q-139 0 -249 -66.5t-186.5 -173t-117.5 -239.5t-41 -266zM580 207q39 -35 93 -50.5t122 -15.5q137 0 247.5 66.5t187.5 173t118 240t41 266.5q0 59 -6.5 110.5t-22.5 96.5z" />
<glyph unicode="&#xd9;" horiz-adv-x="1372" d="M274 377q0 45 8.5 100t18.5 103l201 839h198l-204 -852q-10 -39 -16.5 -86t-6.5 -88q0 -53 12.5 -98t42 -79t76.5 -53.5t115 -19.5q174 0 270 97.5t146 310.5l208 868h199l-213 -891q-29 -117 -66.5 -219t-107.5 -177t-181.5 -119t-285.5 -44q-106 0 -184 32t-129 86 t-76 129t-25 161zM821 1798l139 116l260 -327l-100 -88z" />
<glyph unicode="&#xda;" horiz-adv-x="1372" d="M274 377q0 45 8.5 100t18.5 103l201 839h198l-204 -852q-10 -39 -16.5 -86t-6.5 -88q0 -53 12.5 -98t42 -79t76.5 -53.5t115 -19.5q174 0 270 97.5t146 310.5l208 868h199l-213 -891q-29 -117 -66.5 -219t-107.5 -177t-181.5 -119t-285.5 -44q-106 0 -184 32t-129 86 t-76 129t-25 161zM885 1607l323 309l105 -147l-346 -262z" />
<glyph unicode="&#xdb;" horiz-adv-x="1372" d="M274 377q0 45 8.5 100t18.5 103l201 839h198l-204 -852q-10 -39 -16.5 -86t-6.5 -88q0 -53 12.5 -98t42 -79t76.5 -53.5t115 -19.5q174 0 270 97.5t146 310.5l208 868h199l-213 -891q-29 -117 -66.5 -219t-107.5 -177t-181.5 -119t-285.5 -44q-106 0 -184 32t-129 86 t-76 129t-25 161zM780 1609l332 285l217 -303l-90 -84l-162 178l-229 -168z" />
<glyph unicode="&#xdc;" horiz-adv-x="1372" d="M274 377q0 45 8.5 100t18.5 103l201 839h198l-204 -852q-10 -39 -16.5 -86t-6.5 -88q0 -53 12.5 -98t42 -79t76.5 -53.5t115 -19.5q174 0 270 97.5t146 310.5l208 868h199l-213 -891q-29 -117 -66.5 -219t-107.5 -177t-181.5 -119t-285.5 -44q-106 0 -184 32t-129 86 t-76 129t-25 161zM768 1685q0 61 40.5 99t88.5 38q45 0 76.5 -29.5t31.5 -78.5q0 -59 -42 -96t-89 -37q-45 0 -75.5 28.5t-30.5 75.5zM1157 1685q0 61 41 99t88 38q45 0 76.5 -29.5t31.5 -78.5q0 -59 -42 -96t-89 -37q-45 0 -75.5 28.5t-30.5 75.5z" />
<glyph unicode="&#xdd;" horiz-adv-x="1179" d="M340 1419h215q39 -166 87 -338t108 -331l273 331q138 174 245 338h227l-321 -419l-361 -431l-135 -569h-199l135 569q-80 215 -148.5 431t-125.5 419zM785 1607l323 309l105 -147l-346 -262z" />
<glyph unicode="&#xde;" horiz-adv-x="1224" d="M168 0l342 1419h199l-56 -233q39 4 81 5t81 1q248 0 372 -92t124 -273q0 -139 -52.5 -240.5t-148.5 -167t-231.5 -97t-300.5 -31.5h-142l-69 -291h-199zM477 457h127q86 0 176 15t162 54t118 107.5t46 177.5q0 117 -86 165t-234 48q-76 0 -118.5 -3t-57.5 -5z" />
<glyph unicode="&#xdf;" horiz-adv-x="1236" d="M-35 -362q61 80 96 135t58.5 112.5t41.5 131.5l46 194l221 924q57 242 190.5 348t350.5 106q82 0 143.5 -22.5t102 -60.5t61 -88t20.5 -105q0 -59 -13 -103.5t-41 -83.5t-67 -76l-94 -87l-60 -54q-26 -23 -42 -43t-24.5 -43.5t-8.5 -54.5q0 -43 34 -71.5t93 -69.5 q39 -27 72 -53.5t57.5 -59.5t38.5 -74t14 -96q0 -92 -33.5 -161.5t-92 -116t-140.5 -69t-176 -22.5q-117 0 -195.5 27t-99.5 43l72 154q23 -14 83 -39t154 -25q104 0 171 49t67 148q0 61 -34 103t-120 95q-53 33 -83.5 60.5t-47 54.5t-20.5 53.5t-4 57.5q0 88 56 155.5 t134 132.5l67 58q30 27 51 54.5t32.5 60t11.5 73.5q0 61 -41 98t-123 37q-256 0 -326 -295l-217 -901l-43 -186q-18 -82 -43.5 -153.5t-67.5 -138t-114 -138.5z" />
<glyph unicode="&#xe0;" horiz-adv-x="1122" d="M205 356q0 137 46 268.5t138 234t231.5 165.5t325.5 63q55 0 129 -12t127 -41l-158 -643q-10 -47 -17 -90t-7 -90t8 -95t29 -104l-168 -24q-10 23 -20.5 50.5t-16.5 57.5q-45 -41 -121 -82t-186 -41q-90 0 -154.5 29t-105.5 80t-60.5 120.5t-19.5 153.5zM395 377 q0 -43 8.5 -87t30 -78t57 -55.5t93.5 -21.5q86 0 147.5 37t106.5 86q2 35 7 73t13 77l123 507q-10 4 -33.5 6.5t-42.5 2.5q-117 0 -211 -45t-160.5 -120t-102.5 -174t-36 -208zM649 1479l139 116l260 -327l-100 -88z" />
<glyph unicode="&#xe1;" horiz-adv-x="1122" d="M205 356q0 137 46 268.5t138 234t231.5 165.5t325.5 63q55 0 129 -12t127 -41l-158 -643q-10 -47 -17 -90t-7 -90t8 -95t29 -104l-168 -24q-10 23 -20.5 50.5t-16.5 57.5q-45 -41 -121 -82t-186 -41q-90 0 -154.5 29t-105.5 80t-60.5 120.5t-19.5 153.5zM395 377 q0 -43 8.5 -87t30 -78t57 -55.5t93.5 -21.5q86 0 147.5 37t106.5 86q2 35 7 73t13 77l123 507q-10 4 -33.5 6.5t-42.5 2.5q-117 0 -211 -45t-160.5 -120t-102.5 -174t-36 -208zM711 1288l323 309l105 -147l-346 -262z" />
<glyph unicode="&#xe2;" horiz-adv-x="1122" d="M205 356q0 137 46 268.5t138 234t231.5 165.5t325.5 63q55 0 129 -12t127 -41l-158 -643q-10 -47 -17 -90t-7 -90t8 -95t29 -104l-168 -24q-10 23 -20.5 50.5t-16.5 57.5q-45 -41 -121 -82t-186 -41q-90 0 -154.5 29t-105.5 80t-60.5 120.5t-19.5 153.5zM395 377 q0 -43 8.5 -87t30 -78t57 -55.5t93.5 -21.5q86 0 147.5 37t106.5 86q2 35 7 73t13 77l123 507q-10 4 -33.5 6.5t-42.5 2.5q-117 0 -211 -45t-160.5 -120t-102.5 -174t-36 -208zM608 1290l332 285l217 -303l-90 -84l-162 178l-229 -168z" />
<glyph unicode="&#xe3;" horiz-adv-x="1122" d="M205 356q0 137 46 268.5t138 234t231.5 165.5t325.5 63q55 0 129 -12t127 -41l-158 -643q-10 -47 -17 -90t-7 -90t8 -95t29 -104l-168 -24q-10 23 -20.5 50.5t-16.5 57.5q-45 -41 -121 -82t-186 -41q-90 0 -154.5 29t-105.5 80t-60.5 120.5t-19.5 153.5zM395 377 q0 -43 8.5 -87t30 -78t57 -55.5t93.5 -21.5q86 0 147.5 37t106.5 86q2 35 7 73t13 77l123 507q-10 4 -33.5 6.5t-42.5 2.5q-117 0 -211 -45t-160.5 -120t-102.5 -174t-36 -208zM557 1315q41 86 97 132t148 46q41 0 73 -14.5t61 -30.5q31 -16 55 -26.5t49 -10.5q43 0 71.5 32 t51.5 66l96 -59q-41 -86 -97 -132t-149 -46q-41 0 -72.5 14t-60.5 31q-31 16 -55.5 26.5t-48.5 10.5q-43 0 -71.5 -32t-51.5 -67z" />
<glyph unicode="&#xe4;" horiz-adv-x="1122" d="M205 356q0 137 46 268.5t138 234t231.5 165.5t325.5 63q55 0 129 -12t127 -41l-158 -643q-10 -47 -17 -90t-7 -90t8 -95t29 -104l-168 -24q-10 23 -20.5 50.5t-16.5 57.5q-45 -41 -121 -82t-186 -41q-90 0 -154.5 29t-105.5 80t-60.5 120.5t-19.5 153.5zM395 377 q0 -43 8.5 -87t30 -78t57 -55.5t93.5 -21.5q86 0 147.5 37t106.5 86q2 35 7 73t13 77l123 507q-10 4 -33.5 6.5t-42.5 2.5q-117 0 -211 -45t-160.5 -120t-102.5 -174t-36 -208zM594 1366q0 61 40.5 99t88.5 38q45 0 76.5 -29.5t31.5 -78.5q0 -59 -42 -96t-89 -37 q-45 0 -75.5 28.5t-30.5 75.5zM983 1366q0 61 41 99t88 38q45 0 76.5 -29.5t31.5 -78.5q0 -59 -42 -96t-89 -37q-45 0 -75.5 28.5t-30.5 75.5z" />
<glyph unicode="&#xe5;" horiz-adv-x="1122" d="M205 356q0 137 46 268.5t138 234t231.5 165.5t325.5 63q55 0 129 -12t127 -41l-158 -643q-10 -47 -17 -90t-7 -90t8 -95t29 -104l-168 -24q-10 23 -20.5 50.5t-16.5 57.5q-45 -41 -121 -82t-186 -41q-90 0 -154.5 29t-105.5 80t-60.5 120.5t-19.5 153.5zM395 377 q0 -43 8.5 -87t30 -78t57 -55.5t93.5 -21.5q86 0 147.5 37t106.5 86q2 35 7 73t13 77l123 507q-10 4 -33.5 6.5t-42.5 2.5q-117 0 -211 -45t-160.5 -120t-102.5 -174t-36 -208zM692 1386q0 49 17.5 87t46 66t66.5 42t81 14t81 -14t66.5 -42t46 -65.5t17.5 -87.5 q0 -49 -17.5 -86.5t-46 -65.5t-66.5 -42t-81 -14t-81 14t-66.5 42t-46 65.5t-17.5 86.5zM794 1386q0 -53 32 -82.5t77 -29.5t76.5 29.5t31.5 82.5t-31.5 83t-76.5 30t-77 -30t-32 -83z" />
<glyph unicode="&#xe6;" horiz-adv-x="1720" d="M205 233q0 143 70.5 224.5t178 120t234.5 50t242 17.5q2 16 3 31.5t1 32.5q0 111 -61.5 161t-196.5 50q-41 0 -82 -8.5t-78 -18.5t-66.5 -22.5t-43.5 -20.5l-17 162q47 25 136 49t188 24q53 0 106 -10t101.5 -32.5t88.5 -62.5t66 -97q39 51 88 89t104.5 63.5t113 37.5 t112.5 12q61 0 117.5 -14t97.5 -46t65.5 -81t24.5 -119q0 -96 -32.5 -162.5t-88 -111.5t-128 -69.5t-153.5 -39t-164 -19.5t-159 -9q-2 -16 -3 -31.5t-1 -30.5q0 -117 61.5 -165t196.5 -48q39 0 81 7.5t80 18.5t67.5 22.5t41.5 21.5l17 -162q-53 -29 -142.5 -51.5 t-187.5 -22.5q-55 0 -109.5 10.5t-101.5 34t-85 61.5t-60 95q-72 -94 -182.5 -147.5t-239.5 -53.5q-59 0 -114.5 15.5t-96.5 47.5t-65.5 80.5t-24.5 116.5zM391 260q0 -66 43 -97.5t113 -31.5q135 0 230 95.5t130 273.5q-145 -4 -243.5 -20.5t-159 -47.5t-87 -74t-26.5 -98z M1096 559q143 2 242.5 19.5t160 48t87 73.5t26.5 99q0 66 -43 97.5t-113 31.5q-135 0 -230 -95.5t-130 -273.5z" />
<glyph unicode="&#xe7;" horiz-adv-x="931" d="M209 381q0 139 42 268t124 227.5t200.5 157t272.5 58.5q68 0 129 -9.5t117 -35.5l-72 -160q-33 18 -77 28.5t-114 10.5q-100 0 -180 -44t-136 -117t-86 -168t-30 -198q0 -53 11.5 -100t40 -83t76.5 -56.5t122 -20.5q37 0 78 7.5t76 17.5t62.5 21.5t39.5 21.5l17 -162 q-39 -25 -121 -47.5t-183 -24.5l-18 -26l-16 -25q41 -23 61.5 -49.5t20.5 -73.5q0 -92 -63.5 -139t-174.5 -47q-59 0 -99 9t-67 22l47 112q16 -8 43 -15t66 -7q35 0 57.5 11t22.5 40q0 25 -16.5 37t-55.5 31l-12 6q14 27 39 62l45 65q-141 33 -215 137t-74 258z" />
<glyph unicode="&#xe8;" horiz-adv-x="1069" d="M209 354q0 143 43 276.5t123 236t194.5 163t259.5 60.5q84 0 144.5 -21.5t98.5 -58.5t56.5 -85t18.5 -100q0 -96 -35 -162.5t-92 -111.5t-134 -69.5t-160 -39t-168 -19.5t-161 -9q-2 -16 -2 -27v-16q0 -47 11.5 -89t42 -74t85 -50.5t142.5 -18.5q39 0 81 7.5t79.5 18.5 t67.5 22.5t42 21.5l17 -162q-41 -23 -132.5 -48.5t-214.5 -25.5q-104 0 -180 30t-127 82t-75.5 121.5t-24.5 147.5zM422 559q119 4 217 15.5t170 39t112 74.5t40 123q0 18 -7.5 38.5t-25 38t-48 29t-75.5 11.5q-72 0 -134.5 -31t-111.5 -81t-84 -116.5t-53 -140.5zM631 1479 l139 116l260 -327l-100 -88z" />
<glyph unicode="&#xe9;" horiz-adv-x="1069" d="M209 354q0 143 43 276.5t123 236t194.5 163t259.5 60.5q84 0 144.5 -21.5t98.5 -58.5t56.5 -85t18.5 -100q0 -96 -35 -162.5t-92 -111.5t-134 -69.5t-160 -39t-168 -19.5t-161 -9q-2 -16 -2 -27v-16q0 -47 11.5 -89t42 -74t85 -50.5t142.5 -18.5q39 0 81 7.5t79.5 18.5 t67.5 22.5t42 21.5l17 -162q-41 -23 -132.5 -48.5t-214.5 -25.5q-104 0 -180 30t-127 82t-75.5 121.5t-24.5 147.5zM422 559q119 4 217 15.5t170 39t112 74.5t40 123q0 18 -7.5 38.5t-25 38t-48 29t-75.5 11.5q-72 0 -134.5 -31t-111.5 -81t-84 -116.5t-53 -140.5zM693 1288 l323 309l105 -147l-346 -262z" />
<glyph unicode="&#xea;" horiz-adv-x="1069" d="M209 354q0 143 43 276.5t123 236t194.5 163t259.5 60.5q84 0 144.5 -21.5t98.5 -58.5t56.5 -85t18.5 -100q0 -96 -35 -162.5t-92 -111.5t-134 -69.5t-160 -39t-168 -19.5t-161 -9q-2 -16 -2 -27v-16q0 -47 11.5 -89t42 -74t85 -50.5t142.5 -18.5q39 0 81 7.5t79.5 18.5 t67.5 22.5t42 21.5l17 -162q-41 -23 -132.5 -48.5t-214.5 -25.5q-104 0 -180 30t-127 82t-75.5 121.5t-24.5 147.5zM422 559q119 4 217 15.5t170 39t112 74.5t40 123q0 18 -7.5 38.5t-25 38t-48 29t-75.5 11.5q-72 0 -134.5 -31t-111.5 -81t-84 -116.5t-53 -140.5zM588 1290 l332 285l217 -303l-90 -84l-162 178l-229 -168z" />
<glyph unicode="&#xeb;" horiz-adv-x="1069" d="M209 354q0 143 43 276.5t123 236t194.5 163t259.5 60.5q84 0 144.5 -21.5t98.5 -58.5t56.5 -85t18.5 -100q0 -96 -35 -162.5t-92 -111.5t-134 -69.5t-160 -39t-168 -19.5t-161 -9q-2 -16 -2 -27v-16q0 -47 11.5 -89t42 -74t85 -50.5t142.5 -18.5q39 0 81 7.5t79.5 18.5 t67.5 22.5t42 21.5l17 -162q-41 -23 -132.5 -48.5t-214.5 -25.5q-104 0 -180 30t-127 82t-75.5 121.5t-24.5 147.5zM422 559q119 4 217 15.5t170 39t112 74.5t40 123q0 18 -7.5 38.5t-25 38t-48 29t-75.5 11.5q-72 0 -134.5 -31t-111.5 -81t-84 -116.5t-53 -140.5zM576 1366 q0 61 40.5 99t88.5 38q45 0 76.5 -29.5t31.5 -78.5q0 -59 -42 -96t-89 -37q-45 0 -75.5 28.5t-30.5 75.5zM965 1366q0 61 41 99t88 38q45 0 76.5 -29.5t31.5 -78.5q0 -59 -42 -96t-89 -37q-45 0 -75.5 28.5t-30.5 75.5z" />
<glyph unicode="&#xec;" horiz-adv-x="518" d="M160 0l256 1065h190l-256 -1065h-190zM334 1479l139 116l260 -327l-100 -88z" />
<glyph unicode="&#xed;" horiz-adv-x="518" d="M160 0l256 1065h190l-256 -1065h-190zM398 1288l323 309l105 -147l-346 -262z" />
<glyph unicode="&#xee;" horiz-adv-x="518" d="M160 0l256 1065h190l-256 -1065h-190zM293 1290l332 285l217 -303l-90 -84l-162 178l-229 -168z" />
<glyph unicode="&#xef;" horiz-adv-x="518" d="M160 0l256 1065h190l-256 -1065h-190zM279 1366q0 61 40.5 99t88.5 38q45 0 76.5 -29.5t31.5 -78.5q0 -59 -42 -96t-89 -37q-45 0 -75.5 28.5t-30.5 75.5zM668 1366q0 61 41 99t88 38q45 0 76.5 -29.5t31.5 -78.5q0 -59 -42 -96t-89 -37q-45 0 -75.5 28.5t-30.5 75.5z " />
<glyph unicode="&#xf0;" horiz-adv-x="1173" d="M209 344q0 141 38 262t111.5 209t183 138.5t253.5 50.5q74 0 131 -19.5t94 -42.5q-4 66 -18.5 134.5t-43.5 135.5l-266 -84l-16 129l225 72q-33 53 -68 89l-77 75l143 96q39 -29 86 -80t92 -125l269 86l16 -129l-225 -71q33 -80 53 -178.5t20 -217.5q0 -61 -8 -152 t-32.5 -190.5t-68.5 -200t-113.5 -179t-169 -129t-236.5 -50.5q-80 0 -148.5 26t-118 73t-78 116.5t-28.5 155.5zM399 362q0 -111 54.5 -168t154.5 -57q94 0 166 54.5t122 141.5t80 198.5t40 226.5q-53 45 -114.5 62.5t-121.5 17.5q-186 0 -283.5 -126.5t-97.5 -349.5z" />
<glyph unicode="&#xf1;" horiz-adv-x="1136" d="M160 0l246 1024q94 29 203.5 46t195.5 17q92 0 158.5 -25.5t107.5 -69.5t60.5 -106.5t19.5 -135.5q0 -47 -8 -99.5t-21 -105.5l-131 -545h-190l121 504l27.5 116.5t13.5 112.5q0 82 -45.5 136.5t-167.5 54.5q-51 0 -100.5 -6.5t-82.5 -16.5l-217 -901h-190zM555 1315 q41 86 97 132t148 46q41 0 73 -14.5t61 -30.5q31 -16 55 -26.5t49 -10.5q43 0 71.5 32t51.5 66l96 -59q-41 -86 -97 -132t-149 -46q-41 0 -72.5 14t-60.5 31q-31 16 -55.5 26.5t-48.5 10.5q-43 0 -71.5 -32t-51.5 -67z" />
<glyph unicode="&#xf2;" horiz-adv-x="1144" d="M209 346q0 119 33.5 250t107.5 241.5t190.5 182.5t282.5 72q168 0 263.5 -99.5t95.5 -273.5q0 -119 -34 -250t-107.5 -241.5t-190.5 -182.5t-283 -72q-168 0 -263 99.5t-95 273.5zM399 362q0 -104 45 -165.5t156 -61.5q92 0 165 53.5t123 136.5t76.5 183t26.5 194 q0 104 -45 166t-155 62q-92 0 -165 -53.5t-123 -136.5t-77 -183.5t-27 -194.5zM641 1479l139 116l260 -327l-100 -88z" />
<glyph unicode="&#xf3;" horiz-adv-x="1144" d="M209 346q0 119 33.5 250t107.5 241.5t190.5 182.5t282.5 72q168 0 263.5 -99.5t95.5 -273.5q0 -119 -34 -250t-107.5 -241.5t-190.5 -182.5t-283 -72q-168 0 -263 99.5t-95 273.5zM399 362q0 -104 45 -165.5t156 -61.5q92 0 165 53.5t123 136.5t76.5 183t26.5 194 q0 104 -45 166t-155 62q-92 0 -165 -53.5t-123 -136.5t-77 -183.5t-27 -194.5zM705 1288l323 309l105 -147l-346 -262z" />
<glyph unicode="&#xf4;" horiz-adv-x="1144" d="M209 346q0 119 33.5 250t107.5 241.5t190.5 182.5t282.5 72q168 0 263.5 -99.5t95.5 -273.5q0 -119 -34 -250t-107.5 -241.5t-190.5 -182.5t-283 -72q-168 0 -263 99.5t-95 273.5zM399 362q0 -104 45 -165.5t156 -61.5q92 0 165 53.5t123 136.5t76.5 183t26.5 194 q0 104 -45 166t-155 62q-92 0 -165 -53.5t-123 -136.5t-77 -183.5t-27 -194.5zM598 1290l332 285l217 -303l-90 -84l-162 178l-229 -168z" />
<glyph unicode="&#xf5;" horiz-adv-x="1144" d="M209 346q0 119 33.5 250t107.5 241.5t190.5 182.5t282.5 72q168 0 263.5 -99.5t95.5 -273.5q0 -119 -34 -250t-107.5 -241.5t-190.5 -182.5t-283 -72q-168 0 -263 99.5t-95 273.5zM399 362q0 -104 45 -165.5t156 -61.5q92 0 165 53.5t123 136.5t76.5 183t26.5 194 q0 104 -45 166t-155 62q-92 0 -165 -53.5t-123 -136.5t-77 -183.5t-27 -194.5zM549 1315q41 86 97 132t148 46q41 0 73 -14.5t61 -30.5q31 -16 55 -26.5t49 -10.5q43 0 71.5 32t51.5 66l96 -59q-41 -86 -97 -132t-149 -46q-41 0 -72.5 14t-60.5 31q-31 16 -55.5 26.5 t-48.5 10.5q-43 0 -71.5 -32t-51.5 -67z" />
<glyph unicode="&#xf6;" horiz-adv-x="1144" d="M209 346q0 119 33.5 250t107.5 241.5t190.5 182.5t282.5 72q168 0 263.5 -99.5t95.5 -273.5q0 -119 -34 -250t-107.5 -241.5t-190.5 -182.5t-283 -72q-168 0 -263 99.5t-95 273.5zM399 362q0 -104 45 -165.5t156 -61.5q92 0 165 53.5t123 136.5t76.5 183t26.5 194 q0 104 -45 166t-155 62q-92 0 -165 -53.5t-123 -136.5t-77 -183.5t-27 -194.5zM586 1366q0 61 40.5 99t88.5 38q45 0 76.5 -29.5t31.5 -78.5q0 -59 -42 -96t-89 -37q-45 0 -75.5 28.5t-30.5 75.5zM975 1366q0 61 41 99t88 38q45 0 76.5 -29.5t31.5 -78.5q0 -59 -42 -96 t-89 -37q-45 0 -75.5 28.5t-30.5 75.5z" />
<glyph unicode="&#xf7;" horiz-adv-x="1163" d="M242 528l39 162h919l-39 -162h-919zM504 184q0 31 11 58.5t31.5 50t48.5 36t62 13.5q45 0 73 -26.5t28 -69.5q0 -31 -11.5 -58.5t-32 -50t-49 -36t-61.5 -13.5q-45 0 -72.5 26.5t-27.5 69.5zM692 971q0 31 11.5 58.5t32 50t48 35.5t62.5 13q45 0 72.5 -26.5t27.5 -69.5 q0 -31 -11 -58.5t-31.5 -50t-49.5 -36t-61 -13.5q-45 0 -73 27t-28 70z" />
<glyph unicode="&#xf8;" horiz-adv-x="1144" d="M145 2l113 129q-49 86 -49 215q0 119 33.5 250t108.5 241.5t191.5 182.5t282.5 72q133 0 222 -64l94 107l104 -76l-112 -129q23 -43 36 -95.5t13 -115.5q0 -119 -34 -250t-107.5 -241.5t-190.5 -182.5t-283 -72q-135 0 -223 64l-96 -111zM395 326q0 -16 4 -33l527 598 q-53 41 -135 41q-92 0 -166 -54.5t-125 -137.5t-78 -184t-27 -196v-34zM465 172q45 -39 135 -39q92 0 166 54.5t125 137.5t77.5 184t26.5 196v32q0 16 -4 33z" />
<glyph unicode="&#xf9;" horiz-adv-x="1134" d="M229 309q0 53 9.5 105.5t21.5 105.5l131 545h191l-121 -504q-10 -47 -26.5 -110.5t-16.5 -126.5q0 -37 7 -71t26.5 -59.5t52.5 -41t82 -15.5q88 0 154.5 38t111.5 89q2 33 6 68t14 76l158 657h191l-162 -674q-10 -47 -17.5 -91t-7.5 -91t8.5 -94t28.5 -103l-168 -24 q-10 23 -20.5 51.5t-16.5 60.5q-23 -20 -53.5 -42.5t-70.5 -41t-88 -31t-105 -12.5q-90 0 -150.5 27t-98.5 72t-54.5 106t-16.5 131zM625 1479l139 116l260 -327l-100 -88z" />
<glyph unicode="&#xfa;" horiz-adv-x="1134" d="M229 309q0 53 9.5 105.5t21.5 105.5l131 545h191l-121 -504q-10 -47 -26.5 -110.5t-16.5 -126.5q0 -37 7 -71t26.5 -59.5t52.5 -41t82 -15.5q88 0 154.5 38t111.5 89q2 33 6 68t14 76l158 657h191l-162 -674q-10 -47 -17.5 -91t-7.5 -91t8.5 -94t28.5 -103l-168 -24 q-10 23 -20.5 51.5t-16.5 60.5q-23 -20 -53.5 -42.5t-70.5 -41t-88 -31t-105 -12.5q-90 0 -150.5 27t-98.5 72t-54.5 106t-16.5 131zM688 1288l323 309l105 -147l-346 -262z" />
<glyph unicode="&#xfb;" horiz-adv-x="1134" d="M229 309q0 53 9.5 105.5t21.5 105.5l131 545h191l-121 -504q-10 -47 -26.5 -110.5t-16.5 -126.5q0 -37 7 -71t26.5 -59.5t52.5 -41t82 -15.5q88 0 154.5 38t111.5 89q2 33 6 68t14 76l158 657h191l-162 -674q-10 -47 -17.5 -91t-7.5 -91t8.5 -94t28.5 -103l-168 -24 q-10 23 -20.5 51.5t-16.5 60.5q-23 -20 -53.5 -42.5t-70.5 -41t-88 -31t-105 -12.5q-90 0 -150.5 27t-98.5 72t-54.5 106t-16.5 131zM581 1290l332 285l217 -303l-90 -84l-162 178l-229 -168z" />
<glyph unicode="&#xfc;" horiz-adv-x="1134" d="M229 309q0 53 9.5 105.5t21.5 105.5l131 545h191l-121 -504q-10 -47 -26.5 -110.5t-16.5 -126.5q0 -37 7 -71t26.5 -59.5t52.5 -41t82 -15.5q88 0 154.5 38t111.5 89q2 33 6 68t14 76l158 657h191l-162 -674q-10 -47 -17.5 -91t-7.5 -91t8.5 -94t28.5 -103l-168 -24 q-10 23 -20.5 51.5t-16.5 60.5q-23 -20 -53.5 -42.5t-70.5 -41t-88 -31t-105 -12.5q-90 0 -150.5 27t-98.5 72t-54.5 106t-16.5 131zM570 1366q0 61 40.5 99t88.5 38q45 0 76.5 -29.5t31.5 -78.5q0 -59 -42 -96t-89 -37q-45 0 -75.5 28.5t-30.5 75.5zM959 1366q0 61 41 99 t88 38q45 0 76.5 -29.5t31.5 -78.5q0 -59 -42 -96t-89 -37q-45 0 -75.5 28.5t-30.5 75.5z" />
<glyph unicode="&#xfd;" horiz-adv-x="987" d="M-111 -340l66 156q20 -16 55 -27.5t78 -11.5q119 0 202 57t156 152q-76 248 -124 522t-58 557h195q2 -92 10 -201.5t23.5 -227.5t37 -236.5t50.5 -227.5q78 123 141 255t111.5 253t81 222.5t47.5 162.5h198q-23 -78 -63.5 -193.5t-99 -250t-131 -274.5t-158.5 -269 q-66 -96 -131.5 -181t-140.5 -147.5t-165 -98.5t-202 -36q-57 0 -106.5 14.5t-72.5 30.5zM588 1288l323 309l105 -147l-346 -262z" />
<glyph unicode="&#xfe;" horiz-adv-x="1126" d="M70 -379l465 1935l198 33l-125 -522q100 25 172 25q100 0 173 -29t120 -79t70.5 -118.5t23.5 -150.5q0 -141 -43 -273.5t-132 -235t-225 -163.5t-323 -61q-23 0 -49 2t-47 6l-88 -369h-190zM387 150q20 -4 44 -5.5t46 -1.5q117 0 209 45t156.5 122t99.5 176.5t35 207.5 q0 45 -10.5 88t-38 76t-74.5 52.5t-121 19.5q-51 0 -94 -9.5t-72 -17.5z" />
<glyph unicode="&#xff;" horiz-adv-x="987" d="M-111 -340l66 156q20 -16 55 -27.5t78 -11.5q119 0 202 57t156 152q-76 248 -124 522t-58 557h195q2 -92 10 -201.5t23.5 -227.5t37 -236.5t50.5 -227.5q78 123 141 255t111.5 253t81 222.5t47.5 162.5h198q-23 -78 -63.5 -193.5t-99 -250t-131 -274.5t-158.5 -269 q-66 -96 -131.5 -181t-140.5 -147.5t-165 -98.5t-202 -36q-57 0 -106.5 14.5t-72.5 30.5zM469 1366q0 61 40.5 99t88.5 38q45 0 76.5 -29.5t31.5 -78.5q0 -59 -42 -96t-89 -37q-45 0 -75.5 28.5t-30.5 75.5zM858 1366q0 61 41 99t88 38q45 0 76.5 -29.5t31.5 -78.5 q0 -59 -42 -96t-89 -37q-45 0 -75.5 28.5t-30.5 75.5z" />
<glyph unicode="&#x100;" horiz-adv-x="1310" d="M25 0q229 414 447 762l431 657h195q31 -154 56.5 -310.5t50 -328.5t46.5 -364l47 -416h-200q-10 92 -18.5 185.5t-18.5 179.5h-619l-200 -365h-217zM535 524h507q-16 166 -37.5 330t-50.5 338l-178 -269q-106 -166 -241 -399zM758 1628l35 147h573l-35 -147h-573z" />
<glyph unicode="&#x101;" horiz-adv-x="1122" d="M205 356q0 137 46 268.5t138 234t231.5 165.5t325.5 63q55 0 129 -12t127 -41l-158 -643q-10 -47 -17 -90t-7 -90t8 -95t29 -104l-168 -24q-10 23 -20.5 50.5t-16.5 57.5q-45 -41 -121 -82t-186 -41q-90 0 -154.5 29t-105.5 80t-60.5 120.5t-19.5 153.5zM395 377 q0 -43 8.5 -87t30 -78t57 -55.5t93.5 -21.5q86 0 147.5 37t106.5 86q2 35 7 73t13 77l123 507q-10 4 -33.5 6.5t-42.5 2.5q-117 0 -211 -45t-160.5 -120t-102.5 -174t-36 -208zM604 1309l35 147h573l-35 -147h-573z" />
<glyph unicode="&#x102;" horiz-adv-x="1310" d="M25 0q229 414 447 762l431 657h195q31 -154 56.5 -310.5t50 -328.5t46.5 -364l47 -416h-200q-10 92 -18.5 185.5t-18.5 179.5h-619l-200 -365h-217zM535 524h507q-16 166 -37.5 330t-50.5 338l-178 -269q-106 -166 -241 -399zM821 1789q0 33 6 64h119q-2 -6 -2 -25 q0 -59 33 -93t94 -34q43 0 74 15.5t51.5 38t31.5 49t17 49.5h127q-18 -135 -102 -210t-215 -75q-61 0 -106.5 18.5t-73 49.5t-41 70.5t-13.5 82.5z" />
<glyph unicode="&#x103;" horiz-adv-x="1122" d="M205 356q0 137 46 268.5t138 234t231.5 165.5t325.5 63q55 0 129 -12t127 -41l-158 -643q-10 -47 -17 -90t-7 -90t8 -95t29 -104l-168 -24q-10 23 -20.5 50.5t-16.5 57.5q-45 -41 -121 -82t-186 -41q-90 0 -154.5 29t-105.5 80t-60.5 120.5t-19.5 153.5zM395 377 q0 -43 8.5 -87t30 -78t57 -55.5t93.5 -21.5q86 0 147.5 37t106.5 86q2 35 7 73t13 77l123 507q-10 4 -33.5 6.5t-42.5 2.5q-117 0 -211 -45t-160.5 -120t-102.5 -174t-36 -208zM667 1470q0 33 6 64h119q-2 -6 -2 -25q0 -59 33 -93t94 -34q43 0 74 15.5t51.5 38t31.5 49 t17 49.5h127q-18 -135 -102 -210t-215 -75q-61 0 -106.5 18.5t-73 49.5t-41 70.5t-13.5 82.5z" />
<glyph unicode="&#x104;" horiz-adv-x="1310" d="M25 0q229 414 447 762l431 657h195q31 -154 56.5 -310.5t50 -326.5t46.5 -360l47 -414l-54 -38q-30 -22 -64 -50l-29 -23q-16 -13 -30.5 -30t-25 -35t-10.5 -39q0 -20 17.5 -32.5t58.5 -12.5q20 0 42 4t40 10l-16 -122q-49 -23 -119 -23q-113 0 -158 36t-45 93 q0 55 37 106.5t86 92.5l38 29l32 24q-10 92 -18.5 182t-18.5 185h-619l-200 -365h-217zM535 524h507q-16 166 -37.5 330t-50.5 338l-178 -269q-106 -166 -241 -399z" />
<glyph unicode="&#x105;" horiz-adv-x="1122" d="M205 356q0 137 46 268.5t138 234t231.5 165.5t325.5 63q55 0 129 -12t127 -41l-158 -643q-10 -47 -17 -90t-7 -90t9 -96t36 -115l-45 -34q-20 -15 -45 -38q-35 -29 -65.5 -62.5t-30.5 -72.5q0 -20 17 -32.5t58 -12.5q20 0 42 4t40 10l-16 -122q-49 -23 -119 -23 q-113 0 -158 36t-45 93q0 55 37 106.5t86 92.5q16 14 35 27l33 24q-10 23 -19.5 48.5t-15.5 53.5q-23 -20 -53.5 -42.5t-69.5 -41t-85 -30t-101 -11.5q-90 0 -154.5 29t-105.5 80t-60.5 120.5t-19.5 153.5zM395 377q0 -43 8.5 -87t30 -78t57 -55.5t93.5 -21.5q86 0 147.5 37 t106.5 86q2 35 7 73t13 77l123 507q-10 4 -33.5 6.5t-42.5 2.5q-117 0 -211 -45t-160.5 -120t-102.5 -174t-36 -208z" />
<glyph unicode="&#x106;" horiz-adv-x="1236" d="M258 520q0 184 58.5 352t166 297t259 206t337.5 77q160 0 255.5 -33t135.5 -61l-81 -164q-47 31 -128 58.5t-192 27.5q-141 0 -254 -66.5t-190.5 -172t-118.5 -237.5t-41 -261q0 -399 346 -400q74 0 132 10.5t103.5 23.5t79.5 30l62 29l24 -173q-25 -14 -64.5 -30.5 t-93 -30.5t-119 -23.5t-138.5 -9.5q-133 0 -234.5 39t-169 110.5t-101.5 173t-34 228.5zM940 1607l323 309l105 -147l-346 -262z" />
<glyph unicode="&#x107;" horiz-adv-x="931" d="M209 381q0 139 42 268t124 227.5t200.5 157t272.5 58.5q68 0 129 -9.5t117 -35.5l-72 -160q-33 18 -77 28.5t-114 10.5q-100 0 -180 -44t-136 -117t-86 -168t-30 -198q0 -53 11.5 -100t40 -83t76.5 -56.5t122 -20.5q37 0 78 7.5t76 17.5t62.5 21.5t39.5 21.5l17 -162 q-39 -25 -121 -48.5t-187 -23.5q-98 0 -173.5 30t-127 84t-78 129t-26.5 165zM705 1288l323 309l105 -147l-346 -262z" />
<glyph unicode="&#x108;" horiz-adv-x="1236" d="M258 520q0 184 58.5 352t166 297t259 206t337.5 77q160 0 255.5 -33t135.5 -61l-81 -164q-47 31 -128 58.5t-192 27.5q-141 0 -254 -66.5t-190.5 -172t-118.5 -237.5t-41 -261q0 -399 346 -400q74 0 132 10.5t103.5 23.5t79.5 30l62 29l24 -173q-25 -14 -64.5 -30.5 t-93 -30.5t-119 -23.5t-138.5 -9.5q-133 0 -234.5 39t-169 110.5t-101.5 173t-34 228.5zM835 1609l332 285l217 -303l-90 -84l-162 178l-229 -168z" />
<glyph unicode="&#x109;" horiz-adv-x="931" d="M209 381q0 139 42 268t124 227.5t200.5 157t272.5 58.5q68 0 129 -9.5t117 -35.5l-72 -160q-33 18 -77 28.5t-114 10.5q-100 0 -180 -44t-136 -117t-86 -168t-30 -198q0 -53 11.5 -100t40 -83t76.5 -56.5t122 -20.5q37 0 78 7.5t76 17.5t62.5 21.5t39.5 21.5l17 -162 q-39 -25 -121 -48.5t-187 -23.5q-98 0 -173.5 30t-127 84t-78 129t-26.5 165zM598 1290l332 285l217 -303l-90 -84l-162 178l-229 -168z" />
<glyph unicode="&#x10a;" horiz-adv-x="1236" d="M258 520q0 184 58.5 352t166 297t259 206t337.5 77q160 0 255.5 -33t135.5 -61l-81 -164q-47 31 -128 58.5t-192 27.5q-141 0 -254 -66.5t-190.5 -172t-118.5 -237.5t-41 -261q0 -399 346 -400q74 0 132 10.5t103.5 23.5t79.5 30l62 29l24 -173q-25 -14 -64.5 -30.5 t-93 -30.5t-119 -23.5t-138.5 -9.5q-133 0 -234.5 39t-169 110.5t-101.5 173t-34 228.5zM1014 1685q0 66 41 103.5t92 37.5q47 0 80 -29.5t33 -82.5q0 -61 -43 -99.5t-92 -38.5q-47 0 -79 29t-32 80z" />
<glyph unicode="&#x10b;" horiz-adv-x="931" d="M209 381q0 139 42 268t124 227.5t200.5 157t272.5 58.5q68 0 129 -9.5t117 -35.5l-72 -160q-33 18 -77 28.5t-114 10.5q-100 0 -180 -44t-136 -117t-86 -168t-30 -198q0 -53 11.5 -100t40 -83t76.5 -56.5t122 -20.5q37 0 78 7.5t76 17.5t62.5 21.5t39.5 21.5l17 -162 q-39 -25 -121 -48.5t-187 -23.5q-98 0 -173.5 30t-127 84t-78 129t-26.5 165zM776 1366q0 66 41 103.5t92 37.5q47 0 80 -29.5t33 -82.5q0 -61 -43 -99.5t-92 -38.5q-47 0 -79 29t-32 80z" />
<glyph unicode="&#x10c;" horiz-adv-x="1236" d="M258 520q0 184 58.5 352t166 297t259 206t337.5 77q160 0 255.5 -33t135.5 -61l-81 -164q-47 31 -128 58.5t-192 27.5q-141 0 -254 -66.5t-190.5 -172t-118.5 -237.5t-41 -261q0 -399 346 -400q74 0 132 10.5t103.5 23.5t79.5 30l62 29l24 -173q-25 -14 -64.5 -30.5 t-93 -30.5t-119 -23.5t-138.5 -9.5q-133 0 -234.5 39t-169 110.5t-101.5 173t-34 228.5zM873 1820l90 84l162 -178l229 168l68 -92l-332 -285z" />
<glyph unicode="&#x10d;" horiz-adv-x="931" d="M209 381q0 139 42 268t124 227.5t200.5 157t272.5 58.5q68 0 129 -9.5t117 -35.5l-72 -160q-33 18 -77 28.5t-114 10.5q-100 0 -180 -44t-136 -117t-86 -168t-30 -198q0 -53 11.5 -100t40 -83t76.5 -56.5t122 -20.5q37 0 78 7.5t76 17.5t62.5 21.5t39.5 21.5l17 -162 q-39 -25 -121 -48.5t-187 -23.5q-98 0 -173.5 30t-127 84t-78 129t-26.5 165zM637 1501l90 84l162 -178l229 168l68 -92l-332 -285z" />
<glyph unicode="&#x10e;" horiz-adv-x="1423" d="M176 23l330 1378q86 20 182 26.5t182 6.5q315 0 471 -148.5t156 -400.5q0 -176 -55.5 -339t-172 -288t-297.5 -198.5t-433 -73.5q-86 0 -186.5 8.5t-176.5 28.5zM408 164q16 -4 55 -7t127 -3q162 0 292 54t220 151.5t139 231.5t49 294q0 180 -104.5 280.5t-331.5 100.5 q-154 0 -184 -9zM842 1820l90 84l162 -178l229 168l68 -92l-332 -285z" />
<glyph unicode="&#x10f;" horiz-adv-x="1247" d="M205 356q0 137 46 268.5t137 234t228.5 164.5t319.5 62q23 0 45.5 -2t46.5 -6l115 479l198 33l-288 -1198l-18.5 -90t-8.5 -90t8 -95t29 -104l-168 -24q-23 45 -35 108q-45 -41 -120.5 -82t-186.5 -41q-90 0 -155.5 28t-108.5 79t-63.5 121.5t-20.5 154.5zM395 377 q0 -47 10.5 -90t33 -77t60.5 -54.5t93 -20.5q86 0 146.5 36t105.5 83q2 33 7 70.5t15 83.5l123 512q-18 4 -40.5 5t-43.5 1q-117 0 -211 -45t-160.5 -121t-102.5 -175t-36 -208zM1378 1133l111 456h188l-165 -456h-134z" />
<glyph unicode="&#x110;" horiz-adv-x="1462" d="M203 664l37 153h166l139 584q86 20 182 26.5t182 6.5q315 0 471 -148.5t156 -400.5q0 -176 -55.5 -339t-172 -288t-298 -198.5t-432.5 -73.5q-86 0 -186.5 8t-176.5 29l154 641h-166zM446 164q16 -4 55.5 -7t127.5 -3q162 0 292 54t220 151.5t139 231.5t49 294 q0 180 -104.5 280.5t-331.5 100.5q-154 0 -184 -9l-107 -440h266l-37 -153h-266z" />
<glyph unicode="&#x111;" horiz-adv-x="1136" d="M205 356q0 137 46 267.5t137 231.5t227.5 162.5t318.5 61.5q23 0 45 -2t47 -6l45 186h-321l32 142h322l39 157l198 33l-47 -190h152l-33 -142h-151l-209 -866l-18.5 -90t-8.5 -90t8 -95t29 -104l-168 -24q-20 39 -37 106q-45 -41 -119.5 -81t-185.5 -40q-90 0 -155.5 28 t-108.5 79t-63.5 121.5t-20.5 154.5zM395 377q0 -47 10.5 -90t33 -77t60.5 -54.5t93 -20.5q86 0 146.5 36t105.5 83q2 33 7 70.5t15 83.5l121 505q-18 4 -40.5 5.5t-43.5 1.5q-117 0 -210 -44.5t-159.5 -119t-102.5 -172.5t-36 -207z" />
<glyph unicode="&#x112;" horiz-adv-x="1148" d="M170 0l340 1419h838l-39 -166h-641l-103 -428h570l-39 -161h-568l-120 -498h688l-39 -166h-887zM695 1628l35 147h573l-35 -147h-573z" />
<glyph unicode="&#x113;" horiz-adv-x="1069" d="M209 354q0 143 43 276.5t123 236t194.5 163t259.5 60.5q84 0 144.5 -21.5t98.5 -58.5t56.5 -85t18.5 -100q0 -96 -35 -162.5t-92 -111.5t-134 -69.5t-160 -39t-168 -19.5t-161 -9q-2 -16 -2 -27v-16q0 -47 11.5 -89t42 -74t85 -50.5t142.5 -18.5q39 0 81 7.5t79.5 18.5 t67.5 22.5t42 21.5l17 -162q-41 -23 -132.5 -48.5t-214.5 -25.5q-104 0 -180 30t-127 82t-75.5 121.5t-24.5 147.5zM422 559q119 4 217 15.5t170 39t112 74.5t40 123q0 18 -7.5 38.5t-25 38t-48 29t-75.5 11.5q-72 0 -134.5 -31t-111.5 -81t-84 -116.5t-53 -140.5zM586 1309 l35 147h573l-35 -147h-573z" />
<glyph unicode="&#x114;" horiz-adv-x="1148" d="M170 0l340 1419h838l-39 -166h-641l-103 -428h570l-39 -161h-568l-120 -498h688l-39 -166h-887zM755 1789q0 33 6 64h119q-2 -6 -2 -25q0 -59 33 -93t94 -34q43 0 74 15.5t51.5 38t31.5 49t17 49.5h127q-18 -135 -102 -210t-215 -75q-61 0 -106.5 18.5t-73 49.5t-41 70.5 t-13.5 82.5z" />
<glyph unicode="&#x115;" horiz-adv-x="1069" d="M209 354q0 143 43 276.5t123 236t194.5 163t259.5 60.5q84 0 144.5 -21.5t98.5 -58.5t56.5 -85t18.5 -100q0 -96 -35 -162.5t-92 -111.5t-134 -69.5t-160 -39t-168 -19.5t-161 -9q-2 -16 -2 -27v-16q0 -47 11.5 -89t42 -74t85 -50.5t142.5 -18.5q39 0 81 7.5t79.5 18.5 t67.5 22.5t42 21.5l17 -162q-41 -23 -132.5 -48.5t-214.5 -25.5q-104 0 -180 30t-127 82t-75.5 121.5t-24.5 147.5zM422 559q119 4 217 15.5t170 39t112 74.5t40 123q0 18 -7.5 38.5t-25 38t-48 29t-75.5 11.5q-72 0 -134.5 -31t-111.5 -81t-84 -116.5t-53 -140.5zM647 1470 q0 33 6 64h119q-2 -6 -2 -25q0 -59 33 -93t94 -34q43 0 74 15.5t51.5 38t31.5 49t17 49.5h127q-18 -135 -102 -210t-215 -75q-61 0 -106.5 18.5t-73 49.5t-41 70.5t-13.5 82.5z" />
<glyph unicode="&#x116;" horiz-adv-x="1148" d="M170 0l340 1419h838l-39 -166h-641l-103 -428h570l-39 -161h-568l-120 -498h688l-39 -166h-887zM875 1685q0 66 41 103.5t92 37.5q47 0 80 -29.5t33 -82.5q0 -61 -43 -99.5t-92 -38.5q-47 0 -79 29t-32 80z" />
<glyph unicode="&#x117;" horiz-adv-x="1069" d="M209 354q0 143 43 276.5t123 236t194.5 163t259.5 60.5q84 0 144.5 -21.5t98.5 -58.5t56.5 -85t18.5 -100q0 -96 -35 -162.5t-92 -111.5t-134 -69.5t-160 -39t-168 -19.5t-161 -9q-2 -16 -2 -27v-16q0 -47 11.5 -89t42 -74t85 -50.5t142.5 -18.5q39 0 81 7.5t79.5 18.5 t67.5 22.5t42 21.5l17 -162q-41 -23 -132.5 -48.5t-214.5 -25.5q-104 0 -180 30t-127 82t-75.5 121.5t-24.5 147.5zM422 559q119 4 217 15.5t170 39t112 74.5t40 123q0 18 -7.5 38.5t-25 38t-48 29t-75.5 11.5q-72 0 -134.5 -31t-111.5 -81t-84 -116.5t-53 -140.5zM766 1366 q0 66 41 103.5t92 37.5q47 0 80 -29.5t33 -82.5q0 -61 -43 -99.5t-92 -38.5q-47 0 -79 29t-32 80z" />
<glyph unicode="&#x118;" horiz-adv-x="1148" d="M170 0l340 1419h838l-39 -166h-641l-103 -428h570l-39 -161h-568l-120 -498h688l-37 -156q-27 -16 -58.5 -37.5t-66.5 -52.5l-29 -23q-16 -13 -30.5 -30t-24.5 -35t-10 -39q0 -20 17 -32.5t58 -12.5q20 0 42 4t40 10l-16 -122q-49 -23 -119 -23q-113 0 -158 36t-45 93 q0 55 37 106.5t86 92.5l40 30l34 25h-686z" />
<glyph unicode="&#x119;" horiz-adv-x="1069" d="M209 354q0 143 43 276.5t123 236t194.5 163t259.5 60.5q84 0 144.5 -21.5t98.5 -58.5t56.5 -85t18.5 -100q0 -96 -35 -162.5t-92 -111.5t-134 -69.5t-160 -39t-168 -19.5t-161 -9q-2 -16 -2 -27v-16q0 -47 11.5 -89t42 -74t85 -50.5t142.5 -18.5q39 0 81 7.5t79.5 18.5 t67.5 22.5t42 21.5l12 -164q-35 -18 -71.5 -46t-89.5 -73q-10 -10 -26.5 -24.5t-32 -31.5t-27 -36.5t-11.5 -40.5q0 -20 17.5 -32.5t58.5 -12.5q20 0 42 4t40 10l-16 -122q-49 -23 -119 -23q-113 0 -158 36t-45 93q0 55 37 106.5t86 92.5q10 8 26.5 19l30.5 20 q-14 -4 -41.5 -5.5t-46.5 -1.5q-104 0 -180 28t-125 78t-73.5 118.5t-24.5 152.5zM422 559q119 4 217 15.5t170 39t112 74.5t40 123q0 18 -7.5 38.5t-25 38t-48 29t-75.5 11.5q-72 0 -134.5 -31t-111.5 -81t-84 -116.5t-53 -140.5z" />
<glyph unicode="&#x11a;" horiz-adv-x="1148" d="M170 0l340 1419h838l-39 -166h-641l-103 -428h570l-39 -161h-568l-120 -498h688l-39 -166h-887zM735 1820l90 84l162 -178l229 168l68 -92l-332 -285z" />
<glyph unicode="&#x11b;" horiz-adv-x="1069" d="M209 354q0 143 43 276.5t123 236t194.5 163t259.5 60.5q84 0 144.5 -21.5t98.5 -58.5t56.5 -85t18.5 -100q0 -96 -35 -162.5t-92 -111.5t-134 -69.5t-160 -39t-168 -19.5t-161 -9q-2 -16 -2 -27v-16q0 -47 11.5 -89t42 -74t85 -50.5t142.5 -18.5q39 0 81 7.5t79.5 18.5 t67.5 22.5t42 21.5l17 -162q-41 -23 -132.5 -48.5t-214.5 -25.5q-104 0 -180 30t-127 82t-75.5 121.5t-24.5 147.5zM422 559q119 4 217 15.5t170 39t112 74.5t40 123q0 18 -7.5 38.5t-25 38t-48 29t-75.5 11.5q-72 0 -134.5 -31t-111.5 -81t-84 -116.5t-53 -140.5zM625 1501 l90 84l162 -178l229 168l68 -92l-332 -285z" />
<glyph unicode="&#x11c;" horiz-adv-x="1341" d="M258 520q0 184 58.5 352t167 297t261 206t342.5 77q94 0 163 -12.5t118 -28.5t80 -33.5t49 -29.5l-88 -162q-16 10 -45 26.5t-70 32t-94 25.5t-121 10q-145 0 -259.5 -66.5t-193.5 -172t-120 -237.5t-41 -261q0 -203 86 -302.5t272 -99.5q76 0 137.5 10.5t88.5 20.5 l122 520h195l-156 -647q-25 -14 -67.5 -27.5t-100 -23.5t-124 -16.5t-136.5 -6.5q-258 0 -391 148.5t-133 400.5zM842 1609l332 285l217 -303l-90 -84l-162 178l-229 -168z" />
<glyph unicode="&#x11d;" horiz-adv-x="1134" d="M57 -303l72 160q47 -35 125 -56.5t164 -21.5q84 0 147.5 20.5t109.5 59.5t74.5 92t45.5 121l8 39q-41 -23 -110.5 -45.5t-143.5 -22.5q-166 0 -255 83t-89 232q0 137 45 268.5t137 234t229.5 164.5t321.5 62q29 0 64.5 -4t73.5 -11t74 -19.5t62 -28.5l-223 -932 q-27 -111 -65.5 -199t-106 -149t-174 -95t-266.5 -34q-88 0 -174.5 23.5t-145.5 58.5zM395 412q0 -111 48.5 -160t146.5 -49q82 0 150.5 29.5t105.5 56.5l149 622q-20 4 -46.5 8.5t-51.5 4.5q-111 0 -203 -42t-158.5 -113t-103.5 -164t-37 -193zM614 1290l332 285l217 -303 l-90 -84l-162 178l-229 -168z" />
<glyph unicode="&#x11e;" horiz-adv-x="1341" d="M258 520q0 184 58.5 352t167 297t261 206t342.5 77q94 0 163 -12.5t118 -28.5t80 -33.5t49 -29.5l-88 -162q-16 10 -45 26.5t-70 32t-94 25.5t-121 10q-145 0 -259.5 -66.5t-193.5 -172t-120 -237.5t-41 -261q0 -203 86 -302.5t272 -99.5q76 0 137.5 10.5t88.5 20.5 l122 520h195l-156 -647q-25 -14 -67.5 -27.5t-100 -23.5t-124 -16.5t-136.5 -6.5q-258 0 -391 148.5t-133 400.5zM901 1789q0 33 6 64h119q-2 -6 -2 -25q0 -59 33 -93t94 -34q43 0 74 15.5t51.5 38t31.5 49t17 49.5h127q-18 -135 -102 -210t-215 -75q-61 0 -106.5 18.5 t-73 49.5t-41 70.5t-13.5 82.5z" />
<glyph unicode="&#x11f;" horiz-adv-x="1134" d="M57 -303l72 160q47 -35 125 -56.5t164 -21.5q84 0 147.5 20.5t109.5 59.5t74.5 92t45.5 121l8 39q-41 -23 -110.5 -45.5t-143.5 -22.5q-166 0 -255 83t-89 232q0 137 45 268.5t137 234t229.5 164.5t321.5 62q29 0 64.5 -4t73.5 -11t74 -19.5t62 -28.5l-223 -932 q-27 -111 -65.5 -199t-106 -149t-174 -95t-266.5 -34q-88 0 -174.5 23.5t-145.5 58.5zM395 412q0 -111 48.5 -160t146.5 -49q82 0 150.5 29.5t105.5 56.5l149 622q-20 4 -46.5 8.5t-51.5 4.5q-111 0 -203 -42t-158.5 -113t-103.5 -164t-37 -193zM676 1470q0 33 6 64h119 q-2 -6 -2 -25q0 -59 33 -93t94 -34q43 0 74 15.5t51.5 38t31.5 49t17 49.5h127q-18 -135 -102 -210t-215 -75q-61 0 -106.5 18.5t-73 49.5t-41 70.5t-13.5 82.5z" />
<glyph unicode="&#x120;" horiz-adv-x="1341" d="M258 520q0 184 58.5 352t167 297t261 206t342.5 77q94 0 163 -12.5t118 -28.5t80 -33.5t49 -29.5l-88 -162q-16 10 -45 26.5t-70 32t-94 25.5t-121 10q-145 0 -259.5 -66.5t-193.5 -172t-120 -237.5t-41 -261q0 -203 86 -302.5t272 -99.5q76 0 137.5 10.5t88.5 20.5 l122 520h195l-156 -647q-25 -14 -67.5 -27.5t-100 -23.5t-124 -16.5t-136.5 -6.5q-258 0 -391 148.5t-133 400.5zM1020 1685q0 66 41 103.5t92 37.5q47 0 80 -29.5t33 -82.5q0 -61 -43 -99.5t-92 -38.5q-47 0 -79 29t-32 80z" />
<glyph unicode="&#x121;" horiz-adv-x="1134" d="M57 -303l72 160q47 -35 125 -56.5t164 -21.5q84 0 147.5 20.5t109.5 59.5t74.5 92t45.5 121l8 39q-41 -23 -110.5 -45.5t-143.5 -22.5q-166 0 -255 83t-89 232q0 137 45 268.5t137 234t229.5 164.5t321.5 62q29 0 64.5 -4t73.5 -11t74 -19.5t62 -28.5l-223 -932 q-27 -111 -65.5 -199t-106 -149t-174 -95t-266.5 -34q-88 0 -174.5 23.5t-145.5 58.5zM395 412q0 -111 48.5 -160t146.5 -49q82 0 150.5 29.5t105.5 56.5l149 622q-20 4 -46.5 8.5t-51.5 4.5q-111 0 -203 -42t-158.5 -113t-103.5 -164t-37 -193zM793 1366q0 66 41 103.5 t92 37.5q47 0 80 -29.5t33 -82.5q0 -61 -43 -99.5t-92 -38.5q-47 0 -79 29t-32 80z" />
<glyph unicode="&#x122;" horiz-adv-x="1341" d="M258 520q0 184 58.5 352t167 297t261 206t342.5 77q94 0 163 -12.5t118 -28.5t80 -33.5t49 -29.5l-88 -162q-16 10 -45 26.5t-70 32t-94 25.5t-121 10q-145 0 -259.5 -66.5t-193.5 -172t-120 -237.5t-41 -261q0 -203 86 -302.5t272 -99.5q76 0 137.5 10.5t88.5 20.5 l122 520h195l-156 -647q-25 -14 -67.5 -27.5t-100 -23.5t-124 -16.5t-136.5 -6.5q-258 0 -391 148.5t-133 400.5zM493 -373l29 113q4 -2 13 -2h15q55 0 83 32.5t51 127.5h178q-10 -59 -28.5 -110.5t-52.5 -89.5t-83 -59.5t-121 -21.5q-23 0 -46.5 3t-37.5 7z" />
<glyph unicode="&#x123;" horiz-adv-x="1134" d="M57 -303l72 160q47 -35 125 -56.5t164 -21.5q84 0 147.5 20.5t109.5 59.5t74.5 92t45.5 121l8 39q-41 -23 -110.5 -45.5t-143.5 -22.5q-166 0 -255 83t-89 232q0 137 45 268.5t137 234t229.5 164.5t321.5 62q29 0 64.5 -4t73.5 -11t74 -19.5t62 -28.5l-223 -932 q-27 -111 -65.5 -199t-106 -149t-174 -95t-266.5 -34q-88 0 -174.5 23.5t-145.5 58.5zM395 412q0 -111 48.5 -160t146.5 -49q82 0 150.5 29.5t105.5 56.5l149 622q-20 4 -46.5 8.5t-51.5 4.5q-111 0 -203 -42t-158.5 -113t-103.5 -164t-37 -193zM790 1247q14 143 94 235.5 t209 114.5l56 -90q-37 -16 -65 -35.5t-48 -49t-35.5 -71.5t-28.5 -104h-182z" />
<glyph unicode="&#x124;" horiz-adv-x="1402" d="M170 0l340 1419h199l-144 -594h658l143 594h199l-340 -1419h-199l158 659h-658l-157 -659h-199zM803 1609l332 285l217 -303l-90 -84l-162 178l-229 -168z" />
<glyph unicode="&#x125;" horiz-adv-x="1138" d="M160 0l375 1556l198 33l-131 -538q47 16 99.5 26t105.5 10q92 0 158.5 -25.5t107.5 -69.5t60.5 -106.5t19.5 -135.5q0 -90 -29 -205l-131 -545h-190l121 504l27.5 116.5t13.5 112.5q0 82 -45.5 136.5t-167.5 54.5q-49 0 -101.5 -9.5t-87.5 -25.5l-213 -889h-190z M532 1767l279 203l201 -219l-76 -82l-148 133l-200 -131z" />
<glyph unicode="&#x126;" horiz-adv-x="1460" d="M199 0l256 1071h-154l35 146h153l50 202h198l-49 -202h658l49 202h198l-49 -202h154l-35 -146h-154l-256 -1071h-198l157 659h-657l-158 -659h-198zM594 825h657l60 246h-658z" />
<glyph unicode="&#x127;" horiz-adv-x="1138" d="M160 0l303 1257h-152l33 142h152l39 157l198 33l-47 -190h322l-33 -142h-324l-51 -215q47 16 99.5 26.5t105.5 10.5q92 0 158.5 -25.5t107.5 -69.5t60.5 -106.5t19.5 -136.5q0 -90 -29 -204l-129 -537h-190l119 496l27.5 116.5t13.5 112.5q0 82 -45.5 136t-167.5 54 q-49 0 -101.5 -9t-87.5 -25l-211 -881h-190z" />
<glyph unicode="&#x128;" horiz-adv-x="546" d="M170 0l340 1419h199l-340 -1419h-199zM330 1634q41 86 97 132t148 46q41 0 73 -14.5t61 -30.5q31 -16 55 -26.5t49 -10.5q43 0 71.5 32t51.5 66l96 -59q-41 -86 -97 -132t-149 -46q-41 0 -72.5 14t-60.5 31q-31 16 -55.5 26.5t-48.5 10.5q-43 0 -71.5 -32t-51.5 -67z" />
<glyph unicode="&#x129;" horiz-adv-x="518" d="M160 0l256 1065h190l-256 -1065h-190zM242 1315q41 86 97 132t148 46q41 0 73 -14.5t61 -30.5q31 -16 55 -26.5t49 -10.5q43 0 71.5 32t51.5 66l96 -59q-41 -86 -97 -132t-149 -46q-41 0 -72.5 14t-60.5 31q-31 16 -55.5 26.5t-48.5 10.5q-43 0 -71.5 -32t-51.5 -67z" />
<glyph unicode="&#x12a;" horiz-adv-x="546" d="M170 0l340 1419h199l-340 -1419h-199zM377 1628l35 147h573l-35 -147h-573z" />
<glyph unicode="&#x12b;" horiz-adv-x="518" d="M160 0l256 1065h190l-256 -1065h-190zM289 1309l35 147h573l-35 -147h-573z" />
<glyph unicode="&#x12c;" horiz-adv-x="546" d="M170 0l340 1419h199l-340 -1419h-199zM440 1789q0 33 6 64h119q-2 -6 -2 -25q0 -59 33 -93t94 -34q43 0 74 15.5t51.5 38t31.5 49t17 49.5h127q-18 -135 -102 -210t-215 -75q-61 0 -106.5 18.5t-73 49.5t-41 70.5t-13.5 82.5z" />
<glyph unicode="&#x12d;" horiz-adv-x="518" d="M160 0l256 1065h190l-256 -1065h-190zM352 1470q0 33 6 64h119q-2 -6 -2 -25q0 -59 33 -93t94 -34q43 0 74 15.5t51.5 38t31.5 49t17 49.5h127q-18 -135 -102 -210t-215 -75q-61 0 -106.5 18.5t-73 49.5t-41 70.5t-13.5 82.5z" />
<glyph unicode="&#x12e;" horiz-adv-x="546" d="M-20 -254q0 55 36.5 106.5t85.5 92.5q18 16 35 28l33 25l340 1421h199l-340 -1419q-23 -12 -50.5 -29.5t-60.5 -46.5l-30 -24q-17 -14 -32.5 -30.5t-25.5 -36t-10 -40.5q0 -20 17.5 -32.5t58.5 -12.5q20 0 41.5 4t39.5 10l-16 -122q-49 -23 -119 -23q-113 0 -157.5 36 t-44.5 93z" />
<glyph unicode="&#x12f;" horiz-adv-x="518" d="M-35 -254q0 55 37 106.5t86 92.5q16 14 35.5 29.5t36.5 25.5l256 1065h190l-256 -1065l-51.5 -34.5t-58.5 -45.5l-29 -23q-16 -13 -30.5 -30t-25 -35t-10.5 -39q0 -20 17.5 -32.5t58.5 -12.5q20 0 42 4t40 10l-16 -122q-49 -23 -119 -23q-113 0 -158 36t-45 93zM461 1366 q0 66 41 103.5t92 37.5q47 0 80 -29.5t33 -82.5q0 -61 -43 -99.5t-93 -38.5q-47 0 -78.5 29t-31.5 80z" />
<glyph unicode="&#x130;" horiz-adv-x="546" d="M170 0l340 1419h199l-340 -1419h-199zM553 1685q0 66 41 103.5t92 37.5q47 0 80 -29.5t33 -82.5q0 -61 -43 -99.5t-92 -38.5q-47 0 -79 29t-32 80z" />
<glyph unicode="&#x131;" horiz-adv-x="518" d="M160 0l256 1065h190l-256 -1065h-190z" />
<glyph unicode="&#x132;" horiz-adv-x="1542" d="M170 0l340 1419h199l-340 -1419h-199zM600 98l99 150q33 -33 98 -70t166 -37q74 0 125 18.5t88 58.5t62.5 103.5t47.5 153.5l228 944h198l-229 -962q-25 -98 -55.5 -187.5t-87 -156t-147.5 -105.5t-234 -39q-72 0 -130.5 13.5t-103.5 34t-77 42t-48 39.5z" />
<glyph unicode="&#x133;" horiz-adv-x="1036" d="M160 0l256 1065h190l-256 -1065h-190zM461 1366q0 66 41 103.5t92 37.5q47 0 80 -29.5t33 -82.5q0 -61 -43 -99.5t-93 -38.5q-47 0 -78.5 29t-31.5 80zM293 -348l43 158q23 -14 57.5 -22.5t75.5 -8.5q92 0 140 71.5t77 188.5l246 1026h190l-246 -1024 q-29 -115 -62.5 -196t-83.5 -132t-119.5 -74.5t-170.5 -23.5q-35 0 -78.5 10.5t-68.5 26.5zM979 1366q0 66 41 103.5t92 37.5q47 0 80 -29.5t33 -82.5q0 -61 -43 -99.5t-93 -38.5q-47 0 -78.5 29t-31.5 80z" />
<glyph unicode="&#x134;" horiz-adv-x="995" d="M53 98l99 150q33 -33 98 -70t166 -37q74 0 125 18.5t88 58.5t62.5 103.5t47.5 153.5l228 944h198l-229 -962q-25 -98 -55.5 -187.5t-87 -156t-147.5 -105.5t-234 -39q-72 0 -130.5 13.5t-103.5 34t-77 42t-48 39.5zM829 1609l332 285l217 -303l-90 -84l-162 178 l-229 -168z" />
<glyph unicode="&#x135;" horiz-adv-x="518" d="M-223 -348l43 158q23 -14 57.5 -22.5t75.5 -8.5q92 0 140 71.5t77 188.5l246 1026h190l-246 -1024q-29 -115 -62.5 -196t-83.5 -132t-119.5 -74.5t-170.5 -23.5q-35 0 -78.5 10.5t-68.5 26.5zM287 1290l332 285l217 -303l-90 -84l-162 178l-229 -168z" />
<glyph unicode="&#x136;" horiz-adv-x="1265" d="M170 0l340 1419h199l-150 -620l195 153l204 172l188 164l144 131h250l-175 -156l-203 -178l-212 -180l-202 -166q63 -59 133.5 -147t139.5 -188.5t131 -205t110 -198.5h-222q-53 94 -114.5 192.5t-126 188.5t-132 169t-135.5 134l-163 -684h-199zM401 -373l29 113 q4 -2 13 -2h15q55 0 83 32.5t51 127.5h178q-10 -59 -28.5 -110.5t-52.5 -89.5t-83 -59.5t-121 -21.5q-23 0 -46.5 3t-37.5 7z" />
<glyph unicode="&#x137;" horiz-adv-x="1067" d="M160 0l375 1556l198 33l-229 -948q68 49 139 108l136 115l119 110q54 52 89 91h225q-43 -53 -109 -119l-140 -132l-149 -128q-75 -61 -134 -104q55 -51 111.5 -122t108.5 -150t95 -159.5t72 -150.5h-207q-72 166 -171 305t-210 227l-129 -532h-190zM301 -373l29 113 q4 -2 13 -2h15q55 0 83 32.5t51 127.5h178q-10 -59 -28.5 -110.5t-52.5 -89.5t-83 -59.5t-121 -21.5q-23 0 -46.5 3t-37.5 7z" />
<glyph unicode="&#x138;" horiz-adv-x="1093" d="M160 0l256 1065h190l-104 -436q76 51 152.5 111.5l145.5 119.5l126 113q57 53 94 92h229q-47 -51 -116 -117l-149 -134l-158 -132l-142 -109q57 -49 117.5 -118.5t116 -147.5t101.5 -157.5t77 -149.5h-209q-78 160 -182.5 299t-227.5 227l-127 -526h-190z" />
<glyph unicode="&#x139;" horiz-adv-x="1046" d="M170 0l340 1419h199l-301 -1253h628l-39 -166h-827zM531 1607l323 309l105 -147l-346 -262z" />
<glyph unicode="&#x13a;" horiz-adv-x="573" d="M225 279q0 47 8.5 98t22.5 106l258 1073l199 33l-269 -1120l-20 -88q-10 -43 -10 -82q0 -70 33.5 -111t125.5 -51l-43 -155q-84 2 -142 25.5t-94 62.5t-52.5 92.5t-16.5 116.5zM528 1780l344 170l43 -148l-352 -125z" />
<glyph unicode="&#x13b;" horiz-adv-x="1046" d="M170 0l340 1419h199l-301 -1253h628l-39 -166h-827zM280 -373l29 113q4 -2 13 -2h15q55 0 83 32.5t51 127.5h178q-10 -59 -28.5 -110.5t-52.5 -89.5t-83 -59.5t-121 -21.5q-23 0 -46.5 3t-37.5 7z" />
<glyph unicode="&#x13c;" horiz-adv-x="573" d="M225 279q0 47 8.5 98t22.5 106l258 1073l199 33l-269 -1120l-20 -88q-10 -43 -10 -82q0 -70 33.5 -111t125.5 -51l-43 -155q-84 2 -142 25.5t-94 62.5t-52.5 92.5t-16.5 116.5zM29 -373l29 113q4 -2 13 -2h15q55 0 83 32.5t51 127.5h178q-10 -59 -28.5 -110.5 t-52.5 -89.5t-83 -59.5t-121 -21.5q-23 0 -46.5 3t-37.5 7z" />
<glyph unicode="&#x13d;" horiz-adv-x="1046" d="M170 0l340 1419h199l-301 -1253h628l-39 -166h-827zM776 967l111 456h188l-165 -456h-134z" />
<glyph unicode="&#x13e;" horiz-adv-x="614" d="M225 279q0 47 8.5 98t22.5 106l258 1073l199 33l-269 -1120l-20 -88q-10 -43 -10 -82q0 -70 33.5 -111t125.5 -51l-43 -155q-84 2 -142 25.5t-94 62.5t-52.5 92.5t-16.5 116.5zM745 1133l111 456h188l-165 -456h-134z" />
<glyph unicode="&#x13f;" horiz-adv-x="1046" d="M170 0l340 1419h199l-301 -1253h628l-39 -166h-827zM846 729q0 66 41 103.5t92 37.5q47 0 80 -29.5t33 -82.5q0 -61 -43 -99.5t-92 -38.5q-47 0 -79 29t-32 80z" />
<glyph unicode="&#x140;" horiz-adv-x="745" d="M225 279q0 47 8.5 98t22.5 106l258 1073l199 33l-269 -1120l-20 -88q-10 -43 -10 -82q0 -70 33.5 -111t125.5 -51l-43 -155q-84 2 -142 25.5t-94 62.5t-52.5 92.5t-16.5 116.5zM664 729q0 66 41 103.5t92 37.5q47 0 80 -29.5t33 -82.5q0 -61 -43 -99.5t-92 -38.5 q-47 0 -79 29t-32 80z" />
<glyph unicode="&#x141;" horiz-adv-x="1087" d="M160 647l231 111l160 661h199l-140 -575l258 123l33 -142l-332 -157l-120 -502h628l-39 -166h-827l139 580l-157 -74z" />
<glyph unicode="&#x142;" horiz-adv-x="659" d="M195 772l217 102l163 682l199 33l-151 -631l157 74l33 -141l-233 -111l-74 -311l-21 -88q-10 -43 -10 -82q0 -70 34 -111t126 -51l-43 -155q-84 2 -142.5 25.5t-94.5 62.5t-52 92t-16 117q0 47 8 98t22 106l54 215l-144 -67z" />
<glyph unicode="&#x143;" horiz-adv-x="1437" d="M170 0l340 1419h170q66 -111 134.5 -251t131 -287.5t115.5 -288.5t88 -254l254 1081h194l-337 -1419h-175l-88 270q-51 152 -111.5 307.5t-124 302t-124.5 255.5l-272 -1135h-195zM928 1607l323 309l105 -147l-346 -262z" />
<glyph unicode="&#x144;" horiz-adv-x="1136" d="M160 0l246 1024q94 29 203.5 46t195.5 17q92 0 158.5 -25.5t107.5 -69.5t60.5 -106.5t19.5 -135.5q0 -47 -8 -99.5t-21 -105.5l-131 -545h-190l121 504l27.5 116.5t13.5 112.5q0 82 -45.5 136.5t-167.5 54.5q-51 0 -100.5 -6.5t-82.5 -16.5l-217 -901h-190zM713 1288 l323 309l105 -147l-346 -262z" />
<glyph unicode="&#x145;" horiz-adv-x="1437" d="M170 0l340 1419h170q66 -111 134.5 -251t131 -287.5t115.5 -288.5t88 -254l254 1081h194l-337 -1419h-175l-88 270q-51 152 -111.5 307.5t-124 302t-124.5 255.5l-272 -1135h-195zM412 -373l29 113q4 -2 13 -2h15q55 0 83 32.5t51 127.5h178q-10 -59 -28.5 -110.5 t-52.5 -89.5t-83 -59.5t-121 -21.5q-23 0 -46.5 3t-37.5 7z" />
<glyph unicode="&#x146;" horiz-adv-x="1136" d="M160 0l246 1024q94 29 203.5 46t195.5 17q92 0 158.5 -25.5t107.5 -69.5t60.5 -106.5t19.5 -135.5q0 -47 -8 -99.5t-21 -105.5l-131 -545h-190l121 504l27.5 116.5t13.5 112.5q0 82 -45.5 136.5t-167.5 54.5q-51 0 -100.5 -6.5t-82.5 -16.5l-217 -901h-190zM272 -373 l29 113q4 -2 13 -2h15q55 0 83 32.5t51 127.5h178q-10 -59 -28.5 -110.5t-52.5 -89.5t-83 -59.5t-121 -21.5q-23 0 -46.5 3t-37.5 7z" />
<glyph unicode="&#x147;" horiz-adv-x="1437" d="M170 0l340 1419h170q66 -111 134.5 -251t131 -287.5t115.5 -288.5t88 -254l254 1081h194l-337 -1419h-175l-88 270q-51 152 -111.5 307.5t-124 302t-124.5 255.5l-272 -1135h-195zM860 1820l90 84l162 -178l229 168l68 -92l-332 -285z" />
<glyph unicode="&#x148;" horiz-adv-x="1136" d="M160 0l246 1024q94 29 203.5 46t195.5 17q92 0 158.5 -25.5t107.5 -69.5t60.5 -106.5t19.5 -135.5q0 -47 -8 -99.5t-21 -105.5l-131 -545h-190l121 504l27.5 116.5t13.5 112.5q0 82 -45.5 136.5t-167.5 54.5q-51 0 -100.5 -6.5t-82.5 -16.5l-217 -901h-190zM645 1501 l90 84l162 -178l229 168l68 -92l-332 -285z" />
<glyph unicode="&#x149;" horiz-adv-x="1136" d="M160 0l246 1024q94 29 203.5 46t195.5 17q92 0 158.5 -25.5t107.5 -69.5t60.5 -106.5t19.5 -135.5q0 -47 -8 -99.5t-21 -105.5l-131 -545h-190l121 504l27.5 116.5t13.5 112.5q0 82 -45.5 136.5t-167.5 54.5q-51 0 -100.5 -6.5t-82.5 -16.5l-217 -901h-190zM309 1219 q61 98 96 185t49 185h197q-29 -129 -90.5 -237.5t-130.5 -177.5z" />
<glyph unicode="&#x14a;" horiz-adv-x="1437" d="M170 0l340 1419h170q66 -111 134.5 -251t131 -287.5t115.5 -288.5t88 -254l254 1081h194l-337 -1419q-23 -94 -48.5 -166t-66.5 -120t-105.5 -72.5t-165.5 -24.5q-29 0 -69.5 8t-56.5 19l49 143q12 -6 34.5 -11t51.5 -5q82 0 116.5 51t57.5 143l18 78q-37 121 -88 267.5 t-109.5 295t-121 286.5t-119.5 243l-272 -1135h-195z" />
<glyph unicode="&#x14b;" horiz-adv-x="1136" d="M160 0l246 1024q94 29 203.5 46t195.5 17q92 0 158.5 -25.5t107.5 -69.5t60.5 -106.5t19.5 -135.5q0 -47 -8 -99.5t-21 -105.5l-131 -545q-23 -94 -47 -166t-66 -120t-105.5 -72.5t-164.5 -24.5q-29 0 -69.5 8t-57.5 19l49 143q12 -6 35 -11t51 -5q80 0 117 51t60 143 l129 539l27.5 116.5t13.5 112.5q0 82 -45.5 136.5t-167.5 54.5q-51 0 -100.5 -6.5t-82.5 -16.5l-217 -901h-190z" />
<glyph unicode="&#x14c;" horiz-adv-x="1521" d="M258 510q0 168 51 337t154.5 303t257 218t358.5 84q113 0 208 -34t164 -101.5t106.5 -168.5t37.5 -237q0 -170 -52 -337.5t-154.5 -302t-256 -218.5t-358.5 -84q-115 0 -209 34t-162.5 101.5t-106.5 169t-38 236.5zM465 535q0 -182 79 -288t251 -106q137 0 247.5 66.5 t187.5 173t118 240t41 266.5q0 182 -79 287.5t-251 105.5q-139 0 -249 -66.5t-186.5 -173t-117.5 -239.5t-41 -266zM860 1628l35 147h573l-35 -147h-573z" />
<glyph unicode="&#x14d;" horiz-adv-x="1144" d="M209 346q0 119 33.5 250t107.5 241.5t190.5 182.5t282.5 72q168 0 263.5 -99.5t95.5 -273.5q0 -119 -34 -250t-107.5 -241.5t-190.5 -182.5t-283 -72q-168 0 -263 99.5t-95 273.5zM399 362q0 -104 45 -165.5t156 -61.5q92 0 165 53.5t123 136.5t76.5 183t26.5 194 q0 104 -45 166t-155 62q-92 0 -165 -53.5t-123 -136.5t-77 -183.5t-27 -194.5zM596 1309l35 147h573l-35 -147h-573z" />
<glyph unicode="&#x14e;" horiz-adv-x="1521" d="M258 510q0 168 51 337t154.5 303t257 218t358.5 84q113 0 208 -34t164 -101.5t106.5 -168.5t37.5 -237q0 -170 -52 -337.5t-154.5 -302t-256 -218.5t-358.5 -84q-115 0 -209 34t-162.5 101.5t-106.5 169t-38 236.5zM465 535q0 -182 79 -288t251 -106q137 0 247.5 66.5 t187.5 173t118 240t41 266.5q0 182 -79 287.5t-251 105.5q-139 0 -249 -66.5t-186.5 -173t-117.5 -239.5t-41 -266zM921 1789q0 33 6 64h119q-2 -6 -2 -25q0 -59 33 -93t94 -34q43 0 74 15.5t51.5 38t31.5 49t17 49.5h127q-18 -135 -102 -210t-215 -75q-61 0 -106.5 18.5 t-73 49.5t-41 70.5t-13.5 82.5z" />
<glyph unicode="&#x14f;" horiz-adv-x="1144" d="M209 346q0 119 33.5 250t107.5 241.5t190.5 182.5t282.5 72q168 0 263.5 -99.5t95.5 -273.5q0 -119 -34 -250t-107.5 -241.5t-190.5 -182.5t-283 -72q-168 0 -263 99.5t-95 273.5zM399 362q0 -104 45 -165.5t156 -61.5q92 0 165 53.5t123 136.5t76.5 183t26.5 194 q0 104 -45 166t-155 62q-92 0 -165 -53.5t-123 -136.5t-77 -183.5t-27 -194.5zM659 1470q0 33 6 64h119q-2 -6 -2 -25q0 -59 33 -93t94 -34q43 0 74 15.5t51.5 38t31.5 49t17 49.5h127q-18 -135 -102 -210t-215 -75q-61 0 -106.5 18.5t-73 49.5t-41 70.5t-13.5 82.5z" />
<glyph unicode="&#x150;" horiz-adv-x="1521" d="M258 510q0 168 51 337t154.5 303t257 218t358.5 84q113 0 208 -34t164 -101.5t106.5 -168.5t37.5 -237q0 -170 -52 -337.5t-154.5 -302t-256 -218.5t-358.5 -84q-115 0 -209 34t-162.5 101.5t-106.5 169t-38 236.5zM465 535q0 -182 79 -288t251 -106q137 0 247.5 66.5 t187.5 173t118 240t41 266.5q0 182 -79 287.5t-251 105.5q-139 0 -249 -66.5t-186.5 -173t-117.5 -239.5t-41 -266zM889 1603l285 305l104 -133l-309 -264zM1233 1599l285 305l104 -133l-309 -260z" />
<glyph unicode="&#x151;" horiz-adv-x="1144" d="M209 346q0 119 33.5 250t107.5 241.5t190.5 182.5t282.5 72q168 0 263.5 -99.5t95.5 -273.5q0 -119 -34 -250t-107.5 -241.5t-190.5 -182.5t-283 -72q-168 0 -263 99.5t-95 273.5zM399 362q0 -104 45 -165.5t156 -61.5q92 0 165 53.5t123 136.5t76.5 183t26.5 194 q0 104 -45 166t-155 62q-92 0 -165 -53.5t-123 -136.5t-77 -183.5t-27 -194.5zM625 1284l285 305l104 -133l-309 -264zM969 1280l285 305l104 -133l-309 -260z" />
<glyph unicode="&#x152;" horiz-adv-x="1974" d="M258 537q0 176 55.5 338.5t172 286.5t298 198t433.5 74q53 0 103 -4.5t91 -10.5h762l-39 -166h-610l-103 -428h539l-39 -161h-537l-120 -498h657l-39 -166h-784q-57 -6 -114.5 -10t-98.5 -4q-158 0 -275.5 38.5t-195.5 110.5t-117 173.5t-39 228.5zM465 537 q0 -180 104.5 -281.5t331.5 -101.5q49 0 93 3t73 7l260 1091q-23 4 -59.5 7.5t-102.5 3.5q-162 0 -292 -54.5t-220 -150.5t-139 -230t-49 -294z" />
<glyph unicode="&#x153;" horiz-adv-x="1812" d="M209 346q0 119 33.5 250t107.5 241.5t190.5 182.5t282.5 72q129 0 211 -61.5t103 -166.5q72 98 180 162t256 64q84 0 144.5 -21.5t98 -58.5t56 -85t18.5 -100q0 -96 -34.5 -162.5t-92 -111.5t-134.5 -69.5t-160 -39t-167.5 -19.5t-160.5 -9q0 -10 -1 -18.5t-1 -18.5 q0 -72 20.5 -117t58 -72.5t92 -38t122.5 -10.5q39 0 78.5 8.5t75.5 18.5t63.5 22.5t40.5 20.5l16 -162q-18 -12 -53 -24.5t-80 -23.5t-96.5 -18.5t-106.5 -7.5q-141 0 -238.5 59.5t-127.5 166.5q-66 -92 -174.5 -159t-262.5 -67q-168 0 -263 99.5t-95 273.5zM399 362 q0 -104 45 -165.5t156 -61.5q92 0 165 53.5t123 136.5t76.5 183t26.5 194q0 104 -45 166t-155 62q-92 0 -165 -53.5t-123 -136.5t-77 -183.5t-27 -194.5zM1165 559q119 4 217.5 15.5t170 39t111.5 74.5t40 123q0 18 -7 38.5t-24.5 38t-48.5 29t-76 11.5q-72 0 -134 -31 t-111.5 -81t-84.5 -116.5t-53 -140.5z" />
<glyph unicode="&#x154;" horiz-adv-x="1255" d="M170 0l336 1401q86 20 182 26.5t182 6.5q227 0 360.5 -92.5t133.5 -270.5q0 -180 -105.5 -302t-295.5 -175q25 -43 57.5 -109.5t67 -147.5t67.5 -168t57 -169h-202l-60 158q-31 80 -62.5 153.5t-63 138t-58.5 113.5q-27 -2 -53.5 -3t-53.5 -1h-157l-133 -559h-199z M541 721h121q84 0 172 12t160.5 48t118.5 100.5t46 171.5q0 115 -87 164t-226 49q-145 0 -176 -9zM793 1607l323 309l105 -147l-346 -262z" />
<glyph unicode="&#x155;" horiz-adv-x="770" d="M160 0l246 1024q82 29 176 46t188 17q25 0 55.5 -2t60 -7t54.5 -10t37 -11l-55 -166q-41 16 -94.5 24.5t-102.5 8.5q-43 0 -85 -6.5t-73 -16.5l-217 -901h-190zM592 1288l323 309l105 -147l-346 -262z" />
<glyph unicode="&#x156;" horiz-adv-x="1255" d="M170 0l336 1401q86 20 182 26.5t182 6.5q227 0 360.5 -92.5t133.5 -270.5q0 -180 -105.5 -302t-295.5 -175q25 -43 57.5 -109.5t67 -147.5t67.5 -168t57 -169h-202l-60 158q-31 80 -62.5 153.5t-63 138t-58.5 113.5q-27 -2 -53.5 -3t-53.5 -1h-157l-133 -559h-199z M541 721h121q84 0 172 12t160.5 48t118.5 100.5t46 171.5q0 115 -87 164t-226 49q-145 0 -176 -9zM385 -373l29 113q4 -2 13 -2h15q55 0 83 32.5t51 127.5h178q-10 -59 -28.5 -110.5t-52.5 -89.5t-83 -59.5t-121 -21.5q-23 0 -46.5 3t-37.5 7z" />
<glyph unicode="&#x157;" horiz-adv-x="770" d="M160 0l246 1024q82 29 176 46t188 17q25 0 55.5 -2t60 -7t54.5 -10t37 -11l-55 -166q-41 16 -94.5 24.5t-102.5 8.5q-43 0 -85 -6.5t-73 -16.5l-217 -901h-190zM-45 -373l29 113q4 -2 13 -2h15q55 0 83 32.5t51 127.5h178q-10 -59 -28.5 -110.5t-52.5 -89.5t-83 -59.5 t-121 -21.5q-23 0 -46.5 3t-37.5 7z" />
<glyph unicode="&#x158;" horiz-adv-x="1255" d="M170 0l336 1401q86 20 182 26.5t182 6.5q227 0 360.5 -92.5t133.5 -270.5q0 -180 -105.5 -302t-295.5 -175q25 -43 57.5 -109.5t67 -147.5t67.5 -168t57 -169h-202l-60 158q-31 80 -62.5 153.5t-63 138t-58.5 113.5q-27 -2 -53.5 -3t-53.5 -1h-157l-133 -559h-199z M541 721h121q84 0 172 12t160.5 48t118.5 100.5t46 171.5q0 115 -87 164t-226 49q-145 0 -176 -9zM727 1820l90 84l162 -178l229 168l68 -92l-332 -285z" />
<glyph unicode="&#x159;" horiz-adv-x="770" d="M160 0l246 1024q82 29 176 46t188 17q25 0 55.5 -2t60 -7t54.5 -10t37 -11l-55 -166q-41 16 -94.5 24.5t-102.5 8.5q-43 0 -85 -6.5t-73 -16.5l-217 -901h-190zM527 1501l90 84l162 -178l229 168l68 -92l-332 -285z" />
<glyph unicode="&#x15a;" horiz-adv-x="1067" d="M80 74l92 162q39 -27 123 -61t213 -34q63 0 125.5 13.5t112 44t80 81t30.5 123.5q0 51 -19.5 89t-53 68t-80.5 55l-101 55q-47 25 -95 53.5t-86 70.5t-61.5 99t-23.5 137q0 92 36 170t105.5 134.5t171 87t232.5 30.5q61 0 116.5 -9t101.5 -23.5t80.5 -30t51.5 -27.5 l-92 -156q-35 29 -112 52.5t-181 23.5q-66 0 -122 -13.5t-97 -42t-65.5 -72.5t-24.5 -105q0 -53 16 -89t45 -64t71 -50l91 -47q61 -31 115.5 -62.5t95.5 -75t64.5 -100.5t23.5 -139q0 -113 -44 -198t-121 -141t-182.5 -85t-228.5 -29q-82 0 -148.5 11.5t-116.5 28t-85 34 t-53 31.5zM736 1607l323 309l105 -147l-346 -262z" />
<glyph unicode="&#x15b;" horiz-adv-x="851" d="M82 51l74 156q14 -8 39.5 -20.5t61.5 -24.5t79 -20.5t90 -8.5q43 0 87 8.5t78 26.5t55.5 50t21.5 79q0 31 -10.5 54.5t-33 44t-56 40t-81.5 43.5q-47 23 -86 45.5t-68.5 53t-46 72.5t-16.5 102q0 154 111 247t321 93q98 0 173 -19.5t104 -36.5l-72 -155q-29 16 -92 34.5 t-141 18.5q-39 0 -78 -8t-70.5 -27.5t-51 -51.5t-19.5 -77q0 -55 43 -91t129 -75q53 -25 95 -50.5t71.5 -57t45 -74.5t15.5 -103q0 -86 -33 -151.5t-91 -108.5t-138 -64.5t-174 -21.5q-70 0 -126 9.5t-98 21.5t-70 25.5t-42 21.5zM578 1288l323 309l105 -147l-346 -262z" />
<glyph unicode="&#x15c;" horiz-adv-x="1067" d="M80 74l92 162q39 -27 123 -61t213 -34q63 0 125.5 13.5t112 44t80 81t30.5 123.5q0 51 -19.5 89t-53 68t-80.5 55l-101 55q-47 25 -95 53.5t-86 70.5t-61.5 99t-23.5 137q0 92 36 170t105.5 134.5t171 87t232.5 30.5q61 0 116.5 -9t101.5 -23.5t80.5 -30t51.5 -27.5 l-92 -156q-35 29 -112 52.5t-181 23.5q-66 0 -122 -13.5t-97 -42t-65.5 -72.5t-24.5 -105q0 -53 16 -89t45 -64t71 -50l91 -47q61 -31 115.5 -62.5t95.5 -75t64.5 -100.5t23.5 -139q0 -113 -44 -198t-121 -141t-182.5 -85t-228.5 -29q-82 0 -148.5 11.5t-116.5 28t-85 34 t-53 31.5zM631 1609l332 285l217 -303l-90 -84l-162 178l-229 -168z" />
<glyph unicode="&#x15d;" horiz-adv-x="851" d="M82 51l74 156q14 -8 39.5 -20.5t61.5 -24.5t79 -20.5t90 -8.5q43 0 87 8.5t78 26.5t55.5 50t21.5 79q0 31 -10.5 54.5t-33 44t-56 40t-81.5 43.5q-47 23 -86 45.5t-68.5 53t-46 72.5t-16.5 102q0 154 111 247t321 93q98 0 173 -19.5t104 -36.5l-72 -155q-29 16 -92 34.5 t-141 18.5q-39 0 -78 -8t-70.5 -27.5t-51 -51.5t-19.5 -77q0 -55 43 -91t129 -75q53 -25 95 -50.5t71.5 -57t45 -74.5t15.5 -103q0 -86 -33 -151.5t-91 -108.5t-138 -64.5t-174 -21.5q-70 0 -126 9.5t-98 21.5t-70 25.5t-42 21.5zM471 1290l332 285l217 -303l-90 -84 l-162 178l-229 -168z" />
<glyph unicode="&#x15e;" horiz-adv-x="1067" d="M80 74l92 162q39 -27 123 -61t213 -34q63 0 125.5 13.5t112 44t80 81t30.5 123.5q0 51 -19.5 89t-53 68t-80.5 55l-101 55q-47 25 -95 53.5t-86 70.5t-61.5 99t-23.5 137q0 92 36 170t105.5 134.5t171 87t232.5 30.5q61 0 116.5 -9t101.5 -23.5t80.5 -30t51.5 -27.5 l-92 -156q-35 29 -112 52.5t-181 23.5q-66 0 -122 -13.5t-97 -42t-65.5 -72.5t-24.5 -105q0 -53 16 -89t45 -64t71 -50l91 -47q61 -31 115.5 -62.5t95.5 -75t64.5 -100.5t23.5 -139q0 -102 -37 -182t-103.5 -136.5t-157.5 -89t-198 -41.5l-18 -26l-17 -25q41 -23 61.5 -49.5 t20.5 -73.5q0 -92 -63.5 -139t-173.5 -47q-59 0 -99.5 9t-66.5 22l47 112q16 -8 43 -15t65 -7q35 0 57.5 11t22.5 40q0 25 -16 37t-55 31l-13 6q27 51 76 112q-143 6 -231 41t-123 62z" />
<glyph unicode="&#x15f;" horiz-adv-x="851" d="M82 51l74 156q14 -8 39.5 -20.5t61.5 -24.5t79 -20.5t90 -8.5q43 0 87 8.5t78 26.5t55.5 50t21.5 79q0 31 -10.5 54.5t-33 44t-56 40t-81.5 43.5q-47 23 -86 45.5t-68.5 53t-46 72.5t-16.5 102q0 154 111 247t321 93q98 0 173 -19.5t104 -36.5l-72 -155q-29 16 -92 34.5 t-141 18.5q-39 0 -78 -8t-70.5 -27.5t-51 -51.5t-19.5 -77q0 -55 43 -91t129 -75q53 -25 95 -50.5t71.5 -57t45 -74.5t15.5 -103q0 -78 -27.5 -139t-77 -104t-118 -68.5t-150.5 -32.5q-23 -29 -37 -53q41 -23 61.5 -49.5t20.5 -73.5q0 -92 -63.5 -139t-173.5 -47 q-59 0 -99 9t-67 22l47 112q16 -8 43 -15t66 -7q35 0 57 11t22 40q0 25 -16 37t-55 31l-13 6q12 23 35 56l43 62q-111 8 -179 33t-91 41z" />
<glyph unicode="&#x160;" horiz-adv-x="1067" d="M80 74l92 162q39 -27 123 -61t213 -34q63 0 125.5 13.5t112 44t80 81t30.5 123.5q0 51 -19.5 89t-53 68t-80.5 55l-101 55q-47 25 -95 53.5t-86 70.5t-61.5 99t-23.5 137q0 92 36 170t105.5 134.5t171 87t232.5 30.5q61 0 116.5 -9t101.5 -23.5t80.5 -30t51.5 -27.5 l-92 -156q-35 29 -112 52.5t-181 23.5q-66 0 -122 -13.5t-97 -42t-65.5 -72.5t-24.5 -105q0 -53 16 -89t45 -64t71 -50l91 -47q61 -31 115.5 -62.5t95.5 -75t64.5 -100.5t23.5 -139q0 -113 -44 -198t-121 -141t-182.5 -85t-228.5 -29q-82 0 -148.5 11.5t-116.5 28t-85 34 t-53 31.5zM670 1820l90 84l162 -178l229 168l68 -92l-332 -285z" />
<glyph unicode="&#x161;" horiz-adv-x="851" d="M82 51l74 156q14 -8 39.5 -20.5t61.5 -24.5t79 -20.5t90 -8.5q43 0 87 8.5t78 26.5t55.5 50t21.5 79q0 31 -10.5 54.5t-33 44t-56 40t-81.5 43.5q-47 23 -86 45.5t-68.5 53t-46 72.5t-16.5 102q0 154 111 247t321 93q98 0 173 -19.5t104 -36.5l-72 -155q-29 16 -92 34.5 t-141 18.5q-39 0 -78 -8t-70.5 -27.5t-51 -51.5t-19.5 -77q0 -55 43 -91t129 -75q53 -25 95 -50.5t71.5 -57t45 -74.5t15.5 -103q0 -86 -33 -151.5t-91 -108.5t-138 -64.5t-174 -21.5q-70 0 -126 9.5t-98 21.5t-70 25.5t-42 21.5zM512 1501l90 84l162 -178l229 168l68 -92 l-332 -285z" />
<glyph unicode="&#x162;" horiz-adv-x="1144" d="M268 -356l47 112q16 -8 43 -15t66 -7q35 0 57.5 11t22.5 40q0 25 -16.5 37t-55.5 31l-12 6q16 29 44 69l50 72h-45l301 1253h-428l39 166h1055l-39 -166h-428l-301 -1253h-23q-16 -20 -30.5 -40.5t-24.5 -37.5q41 -23 61.5 -49.5t20.5 -73.5q0 -92 -63.5 -139t-174.5 -47 q-59 0 -99 9.5t-67 21.5z" />
<glyph unicode="&#x163;" horiz-adv-x="804" d="M207 -356l47 112q16 -8 43 -15t65 -7q35 0 57.5 11t22.5 40q0 25 -16 37t-55 31l-13 6q12 25 34 58.5t44 62.5q-209 33 -209 256q0 84 29 215l219 911l199 33l-80 -330h362l-38 -160h-363l-113 -471q-25 -96 -24 -168q0 -68 37 -97.5t123 -29.5q59 0 116.5 19.5 t87.5 36.5l15 -162q-29 -16 -91.5 -36t-142.5 -24l-18 -26l-17 -25q41 -23 61.5 -49.5t20.5 -73.5q0 -92 -63.5 -139t-173.5 -47q-59 0 -99 9.5t-67 21.5z" />
<glyph unicode="&#x164;" horiz-adv-x="1144" d="M342 1253l39 166h1055l-39 -166h-428l-301 -1253h-199l301 1253h-428zM715 1820l90 84l162 -178l229 168l68 -92l-332 -285z" />
<glyph unicode="&#x165;" horiz-adv-x="804" d="M227 236q0 84 29 215l219 911l199 33l-80 -330h362l-38 -160h-363l-113 -471q-25 -96 -24 -168q0 -68 37 -97.5t123 -29.5q59 0 116.5 19.5t87.5 36.5l15 -162q-31 -18 -105 -40t-168 -22q-154 0 -225.5 68t-71.5 197zM766 1192l96 397h188l-151 -397h-133z" />
<glyph unicode="&#x166;" horiz-adv-x="1144" d="M342 1253l39 166h1055l-39 -166h-428l-109 -448h258l-37 -154h-258l-155 -651h-199l156 651h-252l37 154h252l108 448h-428z" />
<glyph unicode="&#x167;" horiz-adv-x="804" d="M227 236q0 84 29 215l219 911l199 33l-80 -330h362l-38 -160h-363l-68 -278h363l-35 -144h-360l-13 -49q-25 -96 -24 -168q0 -68 37 -97.5t123 -29.5q59 0 116.5 19.5t87.5 36.5l15 -162q-31 -18 -105 -40t-168 -22q-154 0 -225.5 68t-71.5 197z" />
<glyph unicode="&#x168;" horiz-adv-x="1372" d="M274 377q0 45 8.5 100t18.5 103l201 839h198l-204 -852q-10 -39 -16.5 -86t-6.5 -88q0 -53 12.5 -98t42 -79t76.5 -53.5t115 -19.5q174 0 270 97.5t146 310.5l208 868h199l-213 -891q-29 -117 -66.5 -219t-107.5 -177t-181.5 -119t-285.5 -44q-106 0 -184 32t-129 86 t-76 129t-25 161zM729 1634q41 86 97 132t148 46q41 0 73 -14.5t61 -30.5q31 -16 55 -26.5t49 -10.5q43 0 71.5 32t51.5 66l96 -59q-41 -86 -97 -132t-149 -46q-41 0 -72.5 14t-60.5 31q-31 16 -55.5 26.5t-48.5 10.5q-43 0 -71.5 -32t-51.5 -67z" />
<glyph unicode="&#x169;" horiz-adv-x="1134" d="M229 309q0 53 9.5 105.5t21.5 105.5l131 545h191l-121 -504q-10 -47 -26.5 -110.5t-16.5 -126.5q0 -37 7 -71t26.5 -59.5t52.5 -41t82 -15.5q88 0 154.5 38t111.5 89q2 33 6 68t14 76l158 657h191l-162 -674q-10 -47 -17.5 -91t-7.5 -91t8.5 -94t28.5 -103l-168 -24 q-10 23 -20.5 51.5t-16.5 60.5q-23 -20 -53.5 -42.5t-70.5 -41t-88 -31t-105 -12.5q-90 0 -150.5 27t-98.5 72t-54.5 106t-16.5 131zM533 1315q41 86 97 132t148 46q41 0 73 -14.5t61 -30.5q31 -16 55 -26.5t49 -10.5q43 0 71.5 32t51.5 66l96 -59q-41 -86 -97 -132 t-149 -46q-41 0 -72.5 14t-60.5 31q-31 16 -55.5 26.5t-48.5 10.5q-43 0 -71.5 -32t-51.5 -67z" />
<glyph unicode="&#x16a;" horiz-adv-x="1372" d="M274 377q0 45 8.5 100t18.5 103l201 839h198l-204 -852q-10 -39 -16.5 -86t-6.5 -88q0 -53 12.5 -98t42 -79t76.5 -53.5t115 -19.5q174 0 270 97.5t146 310.5l208 868h199l-213 -891q-29 -117 -66.5 -219t-107.5 -177t-181.5 -119t-285.5 -44q-106 0 -184 32t-129 86 t-76 129t-25 161zM776 1628l35 147h573l-35 -147h-573z" />
<glyph unicode="&#x16b;" horiz-adv-x="1134" d="M229 309q0 53 9.5 105.5t21.5 105.5l131 545h191l-121 -504q-10 -47 -26.5 -110.5t-16.5 -126.5q0 -37 7 -71t26.5 -59.5t52.5 -41t82 -15.5q88 0 154.5 38t111.5 89q2 33 6 68t14 76l158 657h191l-162 -674q-10 -47 -17.5 -91t-7.5 -91t8.5 -94t28.5 -103l-168 -24 q-10 23 -20.5 51.5t-16.5 60.5q-23 -20 -53.5 -42.5t-70.5 -41t-88 -31t-105 -12.5q-90 0 -150.5 27t-98.5 72t-54.5 106t-16.5 131zM580 1309l35 147h573l-35 -147h-573z" />
<glyph unicode="&#x16c;" horiz-adv-x="1372" d="M274 377q0 45 8.5 100t18.5 103l201 839h198l-204 -852q-10 -39 -16.5 -86t-6.5 -88q0 -53 12.5 -98t42 -79t76.5 -53.5t115 -19.5q174 0 270 97.5t146 310.5l208 868h199l-213 -891q-29 -117 -66.5 -219t-107.5 -177t-181.5 -119t-285.5 -44q-106 0 -184 32t-129 86 t-76 129t-25 161zM839 1789q0 33 6 64h119q-2 -6 -2 -25q0 -59 33 -93t94 -34q43 0 74 15.5t51.5 38t31.5 49t17 49.5h127q-18 -135 -102 -210t-215 -75q-61 0 -106.5 18.5t-73 49.5t-41 70.5t-13.5 82.5z" />
<glyph unicode="&#x16d;" horiz-adv-x="1134" d="M229 309q0 53 9.5 105.5t21.5 105.5l131 545h191l-121 -504q-10 -47 -26.5 -110.5t-16.5 -126.5q0 -37 7 -71t26.5 -59.5t52.5 -41t82 -15.5q88 0 154.5 38t111.5 89q2 33 6 68t14 76l158 657h191l-162 -674q-10 -47 -17.5 -91t-7.5 -91t8.5 -94t28.5 -103l-168 -24 q-10 23 -20.5 51.5t-16.5 60.5q-23 -20 -53.5 -42.5t-70.5 -41t-88 -31t-105 -12.5q-90 0 -150.5 27t-98.5 72t-54.5 106t-16.5 131zM641 1470q0 33 6 64h119q-2 -6 -2 -25q0 -59 33 -93t94 -34q43 0 74 15.5t51.5 38t31.5 49t17 49.5h127q-18 -135 -102 -210t-215 -75 q-61 0 -106.5 18.5t-73 49.5t-41 70.5t-13.5 82.5z" />
<glyph unicode="&#x16e;" horiz-adv-x="1372" d="M274 377q0 45 8.5 100t18.5 103l201 839h198l-204 -852q-10 -39 -16.5 -86t-6.5 -88q0 -53 12.5 -98t42 -79t76.5 -53.5t115 -19.5q174 0 270 97.5t146 310.5l208 868h199l-213 -891q-29 -117 -66.5 -219t-107.5 -177t-181.5 -119t-285.5 -44q-106 0 -184 32t-129 86 t-76 129t-25 161zM844 1705q0 49 17.5 87t46 66t66.5 42t81 14t81 -14t66.5 -42t46 -65.5t17.5 -87.5q0 -49 -17.5 -86.5t-46 -65.5t-66.5 -42t-81 -14t-81 14t-66.5 42t-46 65.5t-17.5 86.5zM946 1705q0 -53 32 -82.5t77 -29.5t76.5 29.5t31.5 82.5t-31.5 83t-76.5 30 t-77 -30t-32 -83z" />
<glyph unicode="&#x16f;" horiz-adv-x="1134" d="M229 309q0 53 9.5 105.5t21.5 105.5l131 545h191l-121 -504q-10 -47 -26.5 -110.5t-16.5 -126.5q0 -37 7 -71t26.5 -59.5t52.5 -41t82 -15.5q88 0 154.5 38t111.5 89q2 33 6 68t14 76l158 657h191l-162 -674q-10 -47 -17.5 -91t-7.5 -91t8.5 -94t28.5 -103l-168 -24 q-10 23 -20.5 51.5t-16.5 60.5q-23 -20 -53.5 -42.5t-70.5 -41t-88 -31t-105 -12.5q-90 0 -150.5 27t-98.5 72t-54.5 106t-16.5 131zM643 1386q0 49 17.5 87t46 66t66.5 42t81 14t81 -14t66.5 -42t46 -65.5t17.5 -87.5q0 -49 -17.5 -86.5t-46 -65.5t-66.5 -42t-81 -14 t-81 14t-66.5 42t-46 65.5t-17.5 86.5zM745 1386q0 -53 32 -82.5t77 -29.5t76.5 29.5t31.5 82.5t-31.5 83t-76.5 30t-77 -30t-32 -83z" />
<glyph unicode="&#x170;" horiz-adv-x="1372" d="M274 377q0 45 8.5 100t18.5 103l201 839h198l-204 -852q-10 -39 -16.5 -86t-6.5 -88q0 -53 12.5 -98t42 -79t76.5 -53.5t115 -19.5q174 0 270 97.5t146 310.5l208 868h199l-213 -891q-29 -117 -66.5 -219t-107.5 -177t-181.5 -119t-285.5 -44q-106 0 -184 32t-129 86 t-76 129t-25 161zM805 1603l285 305l104 -133l-309 -264zM1149 1599l285 305l104 -133l-309 -260z" />
<glyph unicode="&#x171;" horiz-adv-x="1134" d="M229 309q0 53 9.5 105.5t21.5 105.5l131 545h191l-121 -504q-10 -47 -26.5 -110.5t-16.5 -126.5q0 -37 7 -71t26.5 -59.5t52.5 -41t82 -15.5q88 0 154.5 38t111.5 89q2 33 6 68t14 76l158 657h191l-162 -674q-10 -47 -17.5 -91t-7.5 -91t8.5 -94t28.5 -103l-168 -24 q-10 23 -20.5 51.5t-16.5 60.5q-23 -20 -53.5 -42.5t-70.5 -41t-88 -31t-105 -12.5q-90 0 -150.5 27t-98.5 72t-54.5 106t-16.5 131zM606 1284l285 305l104 -133l-309 -264zM950 1280l285 305l104 -133l-309 -260z" />
<glyph unicode="&#x172;" horiz-adv-x="1372" d="M274 377q0 45 8.5 100t18.5 103l201 839h198l-204 -852q-10 -39 -16.5 -86t-6.5 -88q0 -53 12.5 -98t42 -79t76.5 -53.5t115 -19.5q174 0 270 97.5t146 310.5l208 868h199l-213 -891q-20 -84 -44.5 -159.5t-60.5 -140t-87.5 -115t-124.5 -84.5q-37 -16 -78 -46t-78 -61 q-27 -23 -60.5 -56.5t-33.5 -72.5q0 -20 17.5 -32.5t58.5 -12.5q20 0 41.5 4t40.5 10l-17 -122q-49 -23 -119 -23q-113 0 -157.5 36t-44.5 93q0 55 36.5 106.5t86.5 92.5l19 15q11 9 19 13q-12 -2 -27 -2h-28q-106 0 -184 31t-129 86t-76 129t-25 160z" />
<glyph unicode="&#x173;" horiz-adv-x="1134" d="M229 309q0 53 9.5 105.5t21.5 105.5l131 545h191l-121 -504q-10 -47 -26.5 -110.5t-16.5 -126.5q0 -37 7 -71t26.5 -59.5t52.5 -41t82 -15.5q88 0 154.5 38t111.5 89q2 33 6 68t14 76l158 657h191l-162 -674q-10 -47 -17.5 -90t-7.5 -90t8.5 -96t34.5 -115 q-25 -18 -45 -36l-45 -38l-29 -24q-16 -14 -31.5 -31.5t-25.5 -37t-10 -40.5q0 -20 17.5 -32.5t58.5 -12.5q20 0 41.5 4t40.5 10l-17 -122q-49 -23 -119 -23q-113 0 -157.5 36t-44.5 93q0 55 36.5 106.5t86.5 92.5q16 14 34 27l33 24q-23 49 -35 104q-23 -20 -53.5 -42.5 t-70.5 -41t-88 -31t-105 -12.5q-90 0 -150.5 27t-98.5 72t-54.5 106t-16.5 131z" />
<glyph unicode="&#x174;" horiz-adv-x="1884" d="M367 676q0 178 6 359.5t18 383.5h197q-14 -215 -22.5 -425t-8.5 -427q0 -158 6 -313q141 217 282 469l281 524h183q16 -274 45.5 -532t58.5 -461l128 252l133 288l133 309l128 316h211q-164 -406 -326.5 -756t-342.5 -663h-201q-35 217 -67.5 447.5t-53.5 502.5 l-273 -484q-134 -230 -286 -466h-201q-16 166 -22 332t-6 344zM1032 1609l332 285l217 -303l-90 -84l-162 178l-229 -168z" />
<glyph unicode="&#x175;" horiz-adv-x="1619" d="M281 1065h190q2 -96 6 -209t10.5 -226.5t14.5 -220t20 -188.5q63 88 126 194.5t119 217t104.5 221.5t82.5 211h172q0 -92 3.5 -197.5t10.5 -216t16 -220t22 -210.5q51 63 114.5 167t125 221.5t114.5 237.5t82 218h194q-45 -141 -114.5 -290.5t-150.5 -290t-168 -265.5 t-167 -219h-170q-23 178 -40 358.5t-21 366.5q-41 -92 -92 -190.5t-109 -193.5l-114 -183q-57 -88 -111 -158h-170q-43 211 -69.5 480.5t-30.5 584.5zM819 1290l332 285l217 -303l-90 -84l-162 178l-229 -168z" />
<glyph unicode="&#x176;" horiz-adv-x="1179" d="M340 1419h215q39 -166 87 -338t108 -331l273 331q138 174 245 338h227l-321 -419l-361 -431l-135 -569h-199l135 569q-80 215 -148.5 431t-125.5 419zM680 1609l332 285l217 -303l-90 -84l-162 178l-229 -168z" />
<glyph unicode="&#x177;" horiz-adv-x="987" d="M-111 -340l66 156q20 -16 55 -27.5t78 -11.5q119 0 202 57t156 152q-76 248 -124 522t-58 557h195q2 -92 10 -201.5t23.5 -227.5t37 -236.5t50.5 -227.5q78 123 141 255t111.5 253t81 222.5t47.5 162.5h198q-23 -78 -63.5 -193.5t-99 -250t-131 -274.5t-158.5 -269 q-66 -96 -131.5 -181t-140.5 -147.5t-165 -98.5t-202 -36q-57 0 -106.5 14.5t-72.5 30.5zM481 1290l332 285l217 -303l-90 -84l-162 178l-229 -168z" />
<glyph unicode="&#x178;" horiz-adv-x="1179" d="M340 1419h215q39 -166 87 -338t108 -331l273 331q138 174 245 338h227l-321 -419l-361 -431l-135 -569h-199l135 569q-80 215 -148.5 431t-125.5 419zM668 1685q0 61 40.5 99t88.5 38q45 0 76.5 -29.5t31.5 -78.5q0 -59 -42 -96t-89 -37q-45 0 -75.5 28.5t-30.5 75.5z M1057 1685q0 61 41 99t88 38q45 0 76.5 -29.5t31.5 -78.5q0 -59 -42 -96t-89 -37q-45 0 -75.5 28.5t-30.5 75.5z" />
<glyph unicode="&#x179;" horiz-adv-x="1157" d="M76 0l30 133q59 80 138 175l166 199l182 208l186 203l178 184l158 151h-702l39 166h954l-37 -157l-135 -127l-168 -167l-185 -193l-190 -207l-180 -208q-86 -102 -156 -194h766l-39 -166h-1005zM789 1607l323 309l105 -147l-346 -262z" />
<glyph unicode="&#x17a;" horiz-adv-x="937" d="M72 0l28 123q61 90 156 200l196 218l199 204q98 96 172 160h-510l37 160h760l-33 -137l-161 -151l-211 -209l-212 -221q-101 -110 -161 -187h571l-37 -160h-794zM590 1288l323 309l105 -147l-346 -262z" />
<glyph unicode="&#x17b;" horiz-adv-x="1157" d="M76 0l30 133q59 80 138 175l166 199l182 208l186 203l178 184l158 151h-702l39 166h954l-37 -157l-135 -127l-168 -167l-185 -193l-190 -207l-180 -208q-86 -102 -156 -194h766l-39 -166h-1005zM860 1685q0 66 41 103.5t92 37.5q47 0 80 -29.5t33 -82.5q0 -61 -43 -99.5 t-92 -38.5q-47 0 -79 29t-32 80z" />
<glyph unicode="&#x17c;" horiz-adv-x="937" d="M72 0l28 123q61 90 156 200l196 218l199 204q98 96 172 160h-510l37 160h760l-33 -137l-161 -151l-211 -209l-212 -221q-101 -110 -161 -187h571l-37 -160h-794zM662 1366q0 66 41 103.5t92 37.5q47 0 80 -29.5t33 -82.5q0 -61 -43 -99.5t-92 -38.5q-47 0 -79 29t-32 80z " />
<glyph unicode="&#x17d;" horiz-adv-x="1157" d="M76 0l30 133q59 80 138 175l166 199l182 208l186 203l178 184l158 151h-702l39 166h954l-37 -157l-135 -127l-168 -167l-185 -193l-190 -207l-180 -208q-86 -102 -156 -194h766l-39 -166h-1005zM723 1820l90 84l162 -178l229 168l68 -92l-332 -285z" />
<glyph unicode="&#x17e;" horiz-adv-x="937" d="M72 0l28 123q61 90 156 200l196 218l199 204q98 96 172 160h-510l37 160h760l-33 -137l-161 -151l-211 -209l-212 -221q-101 -110 -161 -187h571l-37 -160h-794zM524 1501l90 84l162 -178l229 168l68 -92l-332 -285z" />
<glyph unicode="&#x17f;" horiz-adv-x="591" d="M-31 -362q61 80 96 135t58.5 112.5t41.5 131.5l46 194l227 950q25 102 63 182t96 134.5t138 83t191 28.5q72 0 136 -14t97 -31l-76 -151q-16 8 -56 20t-118 12q-68 0 -114.5 -19.5t-79.5 -54t-52.5 -83.5t-33.5 -111l-223 -928l-44 -186q-18 -82 -43.5 -153.5t-67.5 -138 t-114 -138.5z" />
<glyph unicode="&#x180;" horiz-adv-x="1144" d="M170 41l291 1216h-150l33 142h150l38 157l199 33l-45 -190h322l-33 -142h-324l-57 -245q47 29 108.5 49t131.5 20q88 0 154.5 -27.5t110.5 -76.5t65.5 -117.5t21.5 -148.5q0 -141 -45 -273.5t-137.5 -235t-230.5 -164t-324 -61.5q-31 0 -68 3.5t-75 11.5t-73.5 20.5 t-62.5 28.5zM387 154q20 -4 47 -8.5t53 -4.5q117 0 211.5 45t160 121t101 175.5t35.5 207.5q0 45 -9 87t-33.5 74t-64.5 50.5t-102 18.5q-61 0 -121.5 -21.5t-113.5 -60.5z" />
<glyph unicode="&#x181;" horiz-adv-x="1490" d="M291 1025v13q0 143 68.5 223t182 118t260 46.5t302.5 8.5q104 0 191 -17.5t149.5 -55.5t98.5 -99.5t36 -147.5q0 -125 -74.5 -220t-206.5 -142q88 -33 142.5 -100.5t54.5 -166.5q0 -141 -57.5 -237t-156.5 -154.5t-233.5 -83t-287.5 -24.5q-41 0 -89 2t-97.5 6t-96.5 11 t-84 18l295 1230q-236 -14 -235 -227l-160 -18q-2 8 -2 17zM623 160q23 -4 67.5 -7t114.5 -3q76 0 162 11t157.5 45t119.5 95t48 164q0 100 -71.5 149.5t-231.5 49.5h-248zM780 819h195q68 0 138.5 11.5t128.5 41t96 81t38 130.5q0 104 -77.5 145.5t-237.5 41.5 q-59 0 -101 -1t-71 -3z" />
<glyph unicode="&#x182;" horiz-adv-x="1241" d="M174 23l336 1396h833l-36 -166h-639l-88 -364h165q248 0 377 -86t129 -279q0 -135 -51 -236.5t-142 -169t-218 -100t-281 -32.5q-45 0 -96 2t-102.5 6t-99.5 11.5t-87 17.5zM406 164q16 -4 60 -7t103 -3q98 0 184.5 18t152 60t103.5 110t38 166q0 61 -24 103t-67 68 t-103 36t-132 10h-180z" />
<glyph unicode="&#x183;" horiz-adv-x="1144" d="M170 41l369 1538h741l-39 -160h-551l-96 -407q47 29 108.5 49t131.5 20q88 0 154.5 -27.5t110.5 -76.5t65.5 -117.5t21.5 -148.5q0 -141 -45 -273.5t-137.5 -235t-230.5 -164t-324 -61.5q-31 0 -68 3.5t-75 11.5t-73.5 20.5t-62.5 28.5zM387 154q20 -4 47 -8.5t53 -4.5 q117 0 211.5 45t160 121t101 175.5t35.5 207.5q0 45 -9 87t-33.5 74t-64.5 50.5t-102 18.5q-61 0 -121.5 -21.5t-113.5 -60.5z" />
<glyph unicode="&#x184;" horiz-adv-x="1144" d="M170 41l301 1255l-106 154q82 43 175 80t191 59l-135 -567q47 29 108.5 49.5t131.5 20.5q88 0 154.5 -29t109.5 -79t64.5 -119.5t21.5 -149.5q0 -141 -45 -273.5t-137.5 -236t-230.5 -166t-324 -62.5q-31 0 -68 3.5t-75 11.5t-73.5 20.5t-62.5 28.5zM387 154 q20 -4 47 -8.5t53 -4.5q117 0 211.5 46t160 123t101 176.5t35.5 207.5q0 45 -9 88t-32.5 76t-63.5 52.5t-102 19.5q-61 0 -121.5 -21.5t-113.5 -60.5z" />
<glyph unicode="&#x185;" horiz-adv-x="1263" d="M193 20l268 1117l-107 155q33 18 77 38t94 39.5t103.5 35.5t102.5 29l-127 -531q43 4 86 5t80 1q260 0 384 -94t124 -274q0 -141 -52 -246t-146.5 -173.5t-222.5 -102t-282 -33.5q-45 0 -96 2t-102 6t-99 10t-85 16zM426 164q41 -10 168 -10q94 0 182 18t153.5 62.5 t105.5 115t40 174.5q0 119 -91 169t-241 50q-78 0 -121.5 -3t-58.5 -5z" />
<glyph unicode="&#x186;" horiz-adv-x="1224" d="M76 70l92 161q14 -10 44 -25.5t70 -29.5t91 -23.5t112 -9.5q154 0 267.5 66.5t189.5 174.5t113 243t37 274q0 193 -86 284t-261 91q-129 0 -215 -25.5t-131 -48.5l-14 172q12 8 45 21.5t84 26t118.5 21.5t147.5 9q123 0 219.5 -37t163 -104.5t101 -162.5t34.5 -212 q0 -193 -52 -368t-154.5 -308t-257 -212t-357.5 -79q-90 0 -159.5 12.5t-121 30t-81 34t-39.5 24.5z" />
<glyph unicode="&#x187;" horiz-adv-x="1353" d="M258 520q0 184 58.5 352t166 297t259 206t337.5 77q66 0 132.5 -10t111.5 -31q57 106 132 152.5t187 46.5q45 0 83 -10.5t59 -20.5l-64 -139q-14 6 -34.5 11t-49.5 5q-55 0 -91 -21.5t-61.5 -56.5t-46 -82l-44.5 -98q-35 20 -118 51t-206 31q-141 0 -254 -66.5 t-190.5 -172t-118.5 -237.5t-41 -261q0 -399 346 -400q74 0 132 10.5t103.5 23.5t79.5 30l62 29l24 -173q-25 -14 -64.5 -30.5t-93 -30.5t-119 -23.5t-138.5 -9.5q-133 0 -234.5 39t-169 110.5t-101.5 173t-34 228.5z" />
<glyph unicode="&#x188;" horiz-adv-x="1003" d="M209 381q0 139 42 267t124 226.5t201.5 157t273.5 58.5q25 0 56.5 -3.5t43.5 -7.5q53 121 125 165t164 44q49 0 83 -9t54 -19l-61 -136q-14 6 -34.5 12.5t-47.5 6.5q-45 0 -76 -21.5t-54.5 -57.5t-40.5 -81l-36 -92q-29 14 -76 24.5t-119 10.5q-100 0 -180 -44t-136 -117 t-86 -168t-30 -198q0 -53 11.5 -100t40 -83t76.5 -56.5t122 -20.5q37 0 78 7.5t76 17.5t62.5 21.5t39.5 21.5l17 -162q-39 -25 -121 -48.5t-187 -23.5q-98 0 -173.5 30t-127 84t-78 129t-26.5 165z" />
<glyph unicode="&#x189;" horiz-adv-x="1462" d="M203 664l37 153h166l139 584q86 20 182 26.5t182 6.5q315 0 471 -148.5t156 -400.5q0 -176 -55.5 -339t-172 -288t-298 -198.5t-432.5 -73.5q-86 0 -186.5 8t-176.5 29l154 641h-166zM446 164q16 -4 55.5 -7t127.5 -3q162 0 292 54t220 151.5t139 231.5t49 294 q0 180 -104.5 280.5t-331.5 100.5q-154 0 -184 -9l-107 -440h266l-37 -153h-266z" />
<glyph unicode="&#x18a;" horiz-adv-x="1640" d="M291 1025v13q0 143 68.5 223t180 118t255 46.5t292.5 8.5q315 0 471 -148.5t156 -400.5q0 -176 -55 -339t-172 -288t-298 -198.5t-433 -73.5q-86 0 -186.5 8t-176.5 29l295 1230q-236 -14 -235 -227l-160 -18q-2 8 -2 17zM625 164q16 -4 55 -7t127 -3q162 0 292 54 t220 151.5t139 231.5t49 294q0 180 -103.5 281.5t-326.5 101.5q-72 0 -115.5 -1t-72.5 -3z" />
<glyph unicode="&#x18b;" horiz-adv-x="1245" d="M195 354q0 135 51 236.5t142 167t218 98.5t281 33h194l88 364h-680l37 166h883l-338 -1399q-43 -10 -94 -16t-101.5 -10t-97.5 -6t-84 -2q-244 4 -371.5 91t-127.5 277zM399 371q0 -61 23.5 -103.5t66.5 -68t103.5 -35.5t132.5 -10q74 0 116 2t66 6l135 563h-165 q-98 0 -184.5 -18.5t-152 -60.5t-103.5 -109.5t-38 -165.5z" />
<glyph unicode="&#x18c;" horiz-adv-x="1130" d="M205 356q0 137 46 268.5t137 234t228.5 164.5t319.5 62q23 0 45.5 -2t46.5 -6l82 342h-551l39 160h741l-286 -1188l-18.5 -90t-8.5 -90t8 -95t29 -104l-168 -24q-20 39 -37 106q-45 -41 -119.5 -81t-185.5 -40q-90 0 -155.5 28t-108.5 79t-63.5 121.5t-20.5 154.5z M395 377q0 -47 10.5 -90t33 -77t60.5 -54.5t93 -20.5q86 0 146.5 36t105.5 83q2 33 7 70.5t15 83.5l123 512q-18 4 -40.5 5t-43.5 1q-117 0 -211 -45t-160.5 -121t-102.5 -175t-36 -208z" />
<glyph unicode="&#x18d;" horiz-adv-x="1138" d="M100 -315l68 149q27 -18 101.5 -44t168.5 -26q35 0 76 4.5t76 18.5t57.5 38.5t22.5 68.5q0 33 -14.5 57t-43 48t-72.5 51l-102 67q-94 63 -150.5 154t-56.5 223q0 125 40 234.5t116 190t184.5 127t245.5 46.5q98 0 169 -32t115 -84t65.5 -120t21.5 -141q0 -117 -35 -212 t-95.5 -170t-140 -129t-172.5 -91q53 -41 80 -87t27 -116q0 -84 -35 -140.5t-94 -90t-137 -49t-164 -15.5q-113 0 -191 20.5t-131 49.5zM416 500q0 -104 49 -170t153 -123q82 29 153 74t121 105t78.5 137t28.5 169q0 45 -10 87t-34.5 75t-62.5 53.5t-93 20.5q-90 0 -162 -32 t-121 -89t-74.5 -135t-25.5 -172z" />
<glyph unicode="&#x18e;" horiz-adv-x="1148" d="M94 0l39 166h680l119 498h-570l39 161h568l104 428h-641l39 166h840l-340 -1419h-877z" />
<glyph unicode="&#x18f;" horiz-adv-x="1415" d="M244 418q0 57 12 149t43 191h973q12 70 12 143q0 193 -92 285t-266 92q-141 0 -237.5 -30.5t-141.5 -53.5l-15 172q16 10 55.5 24.5t95.5 29t127 23.5t151 9q123 0 221 -37t165.5 -104.5t104.5 -162.5t37 -212q0 -190 -51.5 -365.5t-152.5 -308.5t-250.5 -213t-344.5 -80 q-98 0 -181 28t-141.5 84t-91 140t-32.5 197zM440 428q0 -131 66.5 -211t202.5 -80q102 0 186 38t150.5 100.5t113.5 146.5t76 176h-774q-21 -80 -21 -170z" />
<glyph unicode="&#x190;" horiz-adv-x="1110" d="M184 326q0 90 29 160.5t80 125t121.5 91t154.5 59.5q-174 76 -174 258q0 111 51.5 192.5t132 135t183 79t207.5 25.5q61 0 116.5 -9t101.5 -23.5t81 -30t51 -27.5l-96 -158q-35 29 -114 53.5t-183 24.5q-154 0 -244 -70.5t-90 -195.5q0 -53 22.5 -88t59.5 -57.5t86 -32 t104 -9.5h160l-41 -161h-123q-63 0 -145 -11.5t-155 -47.5t-123 -99.5t-50 -167.5t79 -153.5t208 -49.5q74 0 135 9.5t109.5 22.5t83.5 29l59 25l14 -172q-16 -10 -56 -24.5t-96.5 -27.5t-127 -22.5t-148.5 -9.5q-217 0 -340 91.5t-123 265.5z" />
<glyph unicode="&#x191;" horiz-adv-x="1081" d="M-147 -356l49 143q12 -6 34.5 -11t51.5 -5q82 0 116.5 51t57.5 143l348 1454h829l-39 -166h-632l-105 -434h561l-39 -162h-559l-157 -657q-23 -94 -48.5 -166t-67.5 -120t-107.5 -72.5t-165.5 -24.5q-29 0 -70 8.5t-57 18.5z" />
<glyph unicode="&#x192;" horiz-adv-x="1163" d="M-80 -338l68 152q16 -8 53 -18.5t92 -10.5q63 0 105.5 19.5t72 55.5t48 86t32.5 111l225 957q25 102 62 183t92 136.5t132 84t181 28.5q86 0 145.5 -17.5t82.5 -31.5l-68 -152q-23 14 -63.5 26.5t-100.5 12.5q-68 0 -113.5 -20.5t-76.5 -56.5t-50.5 -86t-33.5 -111 l-35 -150h383l-37 -160h-383l-153 -647q-25 -102 -60 -183t-87 -136.5t-123.5 -84t-170.5 -28.5q-86 0 -138 12.5t-81 28.5z" />
<glyph unicode="&#x193;" horiz-adv-x="1372" d="M258 520q0 184 58.5 352t167 297t261 206t342.5 77q160 0 254 -41q57 106 132 152.5t188 46.5q45 0 83 -10.5t58 -20.5l-63 -139q-14 6 -35 11t-49 5q-55 0 -91 -21.5t-61.5 -56.5t-46 -82t-45.5 -98q-35 20 -117 51t-215 31q-145 0 -259.5 -66.5t-193.5 -172 t-120 -237.5t-41 -261q0 -203 86 -302.5t272 -99.5q76 0 137.5 10.5t88.5 20.5l122 520h195l-156 -647q-25 -14 -67.5 -27.5t-100 -23.5t-124 -16.5t-136.5 -6.5q-258 0 -391 148.5t-133 400.5z" />
<glyph unicode="&#x194;" horiz-adv-x="1306" d="M338 -143q0 53 19.5 104t57.5 109.5t93 125.5l127 150q-4 8 -8 31l-287 1042h197l237 -866l12 -45l136 180l145 205l160 241l178 285h215q-180 -299 -376.5 -576.5t-407.5 -537.5q41 -135 60 -227t19 -148q0 -141 -87 -224t-246 -83q-78 0 -126 23.5t-74 58.5t-35 76 t-9 76zM510 -121q0 -35 17.5 -66.5t76.5 -31.5q41 0 67.5 15.5t42 37t20.5 46t5 42.5q0 47 -9 100.5t-36 143.5q-102 -113 -143 -177.5t-41 -109.5z" />
<glyph unicode="&#x195;" horiz-adv-x="1718" d="M160 0l375 1556l198 33l-131 -538q47 16 98.5 26t104.5 10q90 0 152.5 -23.5t101.5 -65.5t56.5 -101t17.5 -131q0 -49 -9.5 -102.5t-23.5 -110.5q-6 -27 -15.5 -58.5t-16.5 -65.5l-13 -65q-6 -32 -6 -57q0 -66 33.5 -113t125.5 -47q66 0 112 18.5t79 57.5t56.5 101.5 t43.5 152.5l137 586h191l-144 -610q-20 -88 -47.5 -173t-80 -152t-138.5 -107.5t-223 -40.5q-94 0 -157.5 24.5t-101.5 66.5t-54.5 97t-16.5 119q0 53 11.5 110.5t25.5 114.5q16 63 28.5 123.5t12.5 114.5q0 78 -40 126t-152 48q-49 0 -100.5 -9.5t-86.5 -25.5l-213 -889 h-190z" />
<glyph unicode="&#x196;" horiz-adv-x="743" d="M240 238q0 37 6 78.5t16 89.5l244 1013h199l-250 -1040q-8 -29 -14.5 -58.5t-6.5 -58.5q0 -51 31 -87t115 -36q53 0 89 8.5t60 18.5l6 -158q-25 -12 -82 -25.5t-108 -13.5q-170 0 -237.5 75t-67.5 194z" />
<glyph unicode="&#x197;" horiz-adv-x="679" d="M203 664l37 153h194l146 602h198l-145 -602h198l-36 -153h-199l-158 -664h-198l157 664h-194z" />
<glyph unicode="&#x198;" horiz-adv-x="1298" d="M170 0l340 1419h199l-152 -631l295 293l246 230q37 33 68.5 58.5t64.5 43t68.5 26.5t78.5 9q84 0 130 -26.5t83 -71.5l-100 -131q-27 33 -50.5 48t-56.5 15q-47 0 -79.5 -19.5t-65.5 -45.5q-154 -129 -273 -250l-218 -222q68 -68 141.5 -154.5t147 -185t141 -203 t120.5 -202.5h-219q-57 94 -124.5 192.5t-138.5 188.5t-143.5 169t-140.5 134l-163 -684h-199z" />
<glyph unicode="&#x199;" horiz-adv-x="1067" d="M160 0l289 1206q23 94 47 166t65 120t104.5 72.5t165.5 24.5q29 0 70 -8t57 -18l-49 -144q-12 6 -34.5 11.5t-51.5 5.5q-80 0 -116.5 -51.5t-59.5 -143.5l-143 -600q68 49 139 108l136 115l119 110q54 52 89 91h225q-43 -53 -109 -119l-140 -132l-149 -128 q-75 -61 -134 -104q55 -51 111.5 -122t108.5 -150t95 -159.5t72 -150.5h-207q-72 166 -171 305t-210 227l-129 -532h-190z" />
<glyph unicode="&#x19a;" horiz-adv-x="618" d="M213 752l33 143h153l160 661l199 33l-166 -694h180l-33 -143h-182l-68 -283l-20 -88q-10 -43 -10 -82q0 -70 33.5 -111t125.5 -51l-43 -155q-84 2 -142 25.5t-94 62.5t-52.5 92t-16.5 117q0 47 8.5 98t22.5 106l64 269h-152z" />
<glyph unicode="&#x19b;" horiz-adv-x="1013" d="M61 0q57 154 127 294t150 272t169 257l185 250l-18 119l-238 -76l-16 129l225 72q-20 59 -54 89t-93 30q-29 0 -58.5 -4.5t-54.5 -14.5l8 154q29 10 66 14t76 4q125 0 187 -56t91 -161l252 80l16 -129l-241 -78q66 -358 96.5 -669.5t40.5 -575.5h-189q-4 199 -16 407.5 t-43 454.5l-145 -214q-68 -103 -126.5 -207.5t-108.5 -213t-93 -227.5h-195z" />
<glyph unicode="&#x19c;" horiz-adv-x="1937" d="M264 317q0 37 7.5 92.5t23.5 127.5l213 882h199l-201 -831q-16 -74 -28.5 -138.5t-12.5 -111.5q0 -88 43 -142.5t160 -54.5q47 0 92 10.5t85 26t71.5 33.5t52.5 35q-4 20 -4 40v42q0 84 28 209l213 882h199l-201 -831q-18 -78 -29.5 -139.5t-11.5 -110.5 q0 -100 48.5 -148.5t152.5 -48.5q37 0 73 2t67.5 5.5t57 8.5t37.5 9l302 1253h198l-336 -1394q-78 -20 -186.5 -38t-245.5 -18q-94 0 -179 29t-128 94q-23 -16 -63.5 -37.5t-93 -40t-114 -32t-122.5 -13.5q-109 0 -179.5 28t-111.5 75t-58.5 110t-17.5 135z" />
<glyph unicode="&#x19d;" horiz-adv-x="1437" d="M-147 -356l49 143q12 -6 34.5 -11t51.5 -5q82 0 116.5 51t57.5 143l348 1454h170q66 -111 134.5 -251t131 -287.5t115.5 -288.5t88 -254l254 1081h194l-337 -1419h-175l-88 270q-51 152 -111.5 307.5t-124 302t-124.5 255.5l-272 -1135q-23 -94 -48.5 -166t-66.5 -120 t-105.5 -72.5t-164.5 -24.5q-29 0 -70 8.5t-57 18.5z" />
<glyph unicode="&#x19e;" horiz-adv-x="1136" d="M160 0l246 1024q45 14 98 26.5t105.5 20.5t102.5 12t93 4q92 0 158.5 -25.5t107.5 -69.5t60.5 -106.5t19.5 -135.5q0 -47 -8 -99.5t-21 -105.5l-223 -924h-190l213 883l27.5 116.5t13.5 112.5q0 41 -10.5 76t-35 60.5t-65.5 40t-102 14.5q-51 0 -100.5 -6.5t-82.5 -16.5 l-217 -901h-190z" />
<glyph unicode="&#x19f;" horiz-adv-x="1521" d="M258 510q0 168 51 337t154.5 303t257 218t358.5 84q113 0 208 -34t164 -101.5t106.5 -168.5t37.5 -237q0 -170 -52 -337.5t-154.5 -302t-256 -218.5t-358.5 -84q-115 0 -209 34t-162.5 101.5t-106.5 169t-38 236.5zM465 535q0 -182 79 -288t251 -106q106 0 195 40 t160 108.5t122 159t80 190.5h-881q-6 -53 -6 -104zM502 791h880q2 16 4.5 45.5t2.5 50.5q0 182 -79 287.5t-251 105.5q-104 0 -193.5 -39t-160 -106.5t-121.5 -156.5t-82 -187z" />
<glyph unicode="&#x1a0;" horiz-adv-x="1521" d="M258 510q0 168 51 337t154.5 303t257 218t358.5 84q221 0 357 -123q47 33 75.5 72t45 80t22.5 82t10 77h191q-14 -137 -78 -247.5t-174 -180.5q33 -59 50 -133.5t17 -167.5q0 -170 -52 -337.5t-154.5 -302t-256 -218.5t-358.5 -84q-115 0 -209 34t-162.5 101.5 t-106.5 169t-38 236.5zM465 535q0 -182 79 -288t251 -106q137 0 247.5 66.5t187.5 173t118 240t41 266.5q0 182 -79 287.5t-251 105.5q-139 0 -249 -66.5t-186.5 -173t-117.5 -239.5t-41 -266z" />
<glyph unicode="&#x1a1;" horiz-adv-x="1144" d="M209 346q0 119 33.5 250t107.5 241.5t190.5 182.5t282.5 72q170 0 267 -105q41 31 65.5 69t37.5 78t18.5 78.5t9.5 73.5h188q-14 -135 -76.5 -244.5t-173.5 -179.5q10 -33 16.5 -67.5t6.5 -75.5q0 -119 -34 -250t-107.5 -241.5t-190.5 -182.5t-283 -72q-168 0 -263 99.5 t-95 273.5zM399 362q0 -104 45 -165.5t156 -61.5q92 0 165 53.5t123 136.5t76.5 183t26.5 194q0 104 -45 166t-155 62q-92 0 -165 -53.5t-123 -136.5t-77 -183.5t-27 -194.5z" />
<glyph unicode="&#x1a2;" horiz-adv-x="2052" d="M260 510q0 168 51 337t151.5 303t250 218t346.5 84q217 0 350 -129q72 47 164 87t223 40q94 0 157.5 -23.5t101.5 -64.5t53.5 -97.5t15.5 -121.5q0 -115 -33 -238l-217 -905h-199l205 854q12 47 25.5 110.5t13.5 125.5q0 39 -7 73.5t-25.5 60t-52.5 40t-87 14.5 q-43 0 -82 -10.5t-69.5 -23.5t-54 -28.5t-36.5 -25.5q27 -57 41.5 -127t14.5 -152q0 -170 -51.5 -337.5t-152 -302t-250 -218.5t-345.5 -84q-109 0 -201 34t-158.5 101.5t-104.5 169t-38 236.5zM467 535q0 -182 75.5 -288t239.5 -106q131 0 236.5 66.5t180.5 173t115 240 t40 266.5q0 182 -76 287.5t-240 105.5q-131 0 -236.5 -66.5t-180 -173t-114.5 -239.5t-40 -266z" />
<glyph unicode="&#x1a3;" horiz-adv-x="1622" d="M209 344q0 119 33.5 250t106.5 241.5t186.5 183.5t275.5 73q76 0 136.5 -24t105.5 -67q45 33 121.5 59.5t154.5 26.5q164 0 235.5 -77.5t71.5 -208.5q0 -98 -26 -203l-236 -977h-190l225 936q16 70 26.5 125t10.5 96q0 68 -33 106t-125 38q-53 0 -94 -14.5t-64 -30.5 q25 -68 25 -156q0 -119 -34 -250t-106.5 -241.5t-187 -183.5t-276.5 -73q-160 0 -251 98.5t-91 272.5zM397 362q0 -104 43 -164.5t148 -60.5q88 0 158.5 53.5t118.5 136.5t74 182t26 193q0 104 -43 165t-148 61q-90 0 -159.5 -53.5t-117.5 -136.5t-74 -182.5t-26 -193.5z " />
<glyph unicode="&#x1a4;" horiz-adv-x="1433" d="M291 1025v13q0 143 68.5 223t180 118t255 46.5t292.5 8.5q248 0 374 -94.5t126 -274.5q0 -139 -52 -240.5t-148.5 -167t-231.5 -97.5t-301 -32h-141l-127 -528h-199l301 1253q-236 -14 -235 -227l-160 -18q-2 8 -2 17zM752 694h129q86 0 176 15.5t161.5 54.5t117.5 107.5 t46 177.5q0 117 -84 168t-227 51q-66 0 -109.5 -1t-72.5 -3z" />
<glyph unicode="&#x1a5;" horiz-adv-x="1126" d="M70 -379l381 1585q23 94 47 166t65 120t104.5 72.5t163.5 24.5q29 0 70 -8t57 -18l-49 -144q-12 6 -34.5 11.5t-51.5 5.5q-80 0 -115.5 -51.5t-58.5 -143.5l-41 -174q100 25 172 25q100 0 173 -29t120 -79t70.5 -118.5t23.5 -150.5q0 -141 -43 -273.5t-132 -235 t-225 -163.5t-323 -61q-23 0 -49 2t-47 6l-88 -369h-190zM387 150q20 -4 44 -5.5t46 -1.5q117 0 209 45t156.5 122t99.5 176.5t35 207.5q0 45 -10.5 88t-38 76t-74.5 52.5t-121 19.5q-51 0 -94 -9.5t-72 -17.5z" />
<glyph unicode="&#x1a6;" horiz-adv-x="1273" d="M170 0l381 1589h199l-39 -166q39 4 81 5.5t80 1.5q227 0 359.5 -90.5t132.5 -268.5q0 -180 -105.5 -302t-295.5 -175q78 -154 167 -355.5t168 -461.5h-204q-78 242 -158 433t-166 353q-27 -2 -55.5 -3t-55.5 -1h-157l-133 -559h-199zM541 721h121q84 0 172 12t160.5 48 t118.5 100.5t46 171.5q0 57 -23.5 97t-64.5 64.5t-99.5 36t-127.5 11.5q-76 0 -118 -2.5t-56 -4.5z" />
<glyph unicode="&#x1a7;" horiz-adv-x="1097" d="M170 299q0 117 45 200t119 141t166 98t186 71q82 27 146.5 53.5t110.5 62.5t70.5 82t24.5 109q0 78 -51 122t-162 44q-123 0 -208 -28.5t-136 -55.5l-26 162q27 16 70.5 32.5t97 30t111 21.5t110.5 8q199 0 296 -86t97 -221q0 -106 -36 -183t-98.5 -132.5t-148.5 -96.5 t-184 -76q-78 -27 -149.5 -54.5t-127 -65t-89 -90t-33.5 -128.5q0 -98 65.5 -139t181.5 -41q74 0 135.5 9.5t109.5 22.5t84 29l59 25l14 -172q-16 -10 -56 -24.5t-95.5 -27.5t-124 -22.5t-142.5 -9.5q-229 0 -330.5 88t-101.5 242z" />
<glyph unicode="&#x1a8;" horiz-adv-x="899" d="M154 231q0 88 32.5 149.5t85 105.5t119 73t135.5 51q55 18 103.5 37t84.5 41.5t55 54t19 74.5q0 33 -13 55.5t-35.5 37t-50 19.5t-58.5 5q-94 0 -166 -25.5t-100 -40.5l-11 160q37 20 121 42t182 22q143 0 229.5 -65.5t86.5 -188.5q0 -92 -36 -154.5t-92.5 -104.5 t-128 -70t-143.5 -52q-41 -14 -81.5 -30.5t-74.5 -39t-55.5 -55.5t-21.5 -80q0 -66 50 -92.5t145 -26.5q53 0 101 8.5t87 20.5t66.5 23.5t39.5 17.5l11 -166q-14 -8 -46 -18.5t-75 -20.5t-94.5 -17.5t-106.5 -7.5q-178 0 -271 64.5t-93 193.5z" />
<glyph unicode="&#x1a9;" horiz-adv-x="1124" d="M82 0l35 152q51 63 121 137l147 149l159 153l158 148l-95 175l-84 163l-65 133q-28 57 -40 86l31 123h937l-38 -166h-705q51 -125 126 -257l155 -279l-288 -268q-144 -133 -286 -283h733l-39 -166h-962z" />
<glyph unicode="&#x1aa;" horiz-adv-x="565" d="M68 1243q0 70 23.5 133.5t69.5 110.5t113.5 74.5t157.5 27.5q76 0 127 -19.5t83 -53t46 -82t14 -105.5q0 -76 -22 -155l-256 -1072l-21 -88q-10 -43 -10 -82q0 -70 34 -110.5t126 -50.5l-43 -156q-84 2 -142.5 25.5t-94 62.5t-52 92t-16.5 117q0 47 8 98t23 107l227 946 q-45 -31 -91 -43t-83 -12q-61 0 -103.5 18t-68 51t-37.5 76t-12 90zM217 1253q0 -47 26.5 -76.5t86.5 -29.5q51 0 91 22.5t83 59.5l12 51q6 27 6 49q0 53 -29.5 86t-89.5 33q-39 0 -72.5 -15.5t-59 -41t-40 -61.5t-14.5 -77z" />
<glyph unicode="&#x1ab;" horiz-adv-x="804" d="M227 236q0 84 29 215l219 911l199 33l-80 -330h364l-40 -160h-363l-113 -471q-25 -96 -24 -168q0 -68 37 -97.5t123 -29.5q59 0 118.5 9.5t87.5 17.5q-8 -96 -21 -194.5t-52 -177.5t-112 -128t-198 -49q-35 0 -75.5 8t-57.5 19l49 137q12 -6 35 -11.5t51 -5.5 q49 0 84 20.5t57.5 53.5t34 74t15.5 82q-16 -2 -33.5 -3t-36.5 -1q-162 0 -229.5 58.5t-67.5 187.5z" />
<glyph unicode="&#x1ac;" horiz-adv-x="1206" d="M291 1025v13q0 115 42 188.5t107.5 116.5t143.5 59.5t149 16.5h764l-39 -166h-428l-301 -1253h-199l301 1253h-137q-117 0 -176 -61.5t-59 -165.5l-166 -18q-2 8 -2 17z" />
<glyph unicode="&#x1ad;" horiz-adv-x="804" d="M227 236q0 47 8.5 101t22.5 114l170 710q25 102 62.5 182t96 134.5t138.5 83t190 28.5q72 0 136.5 -14t97.5 -31l-76 -151q-16 8 -56 20t-118 12q-68 0 -115 -19.5t-79.5 -54t-52 -83.5t-34.5 -111l-22 -92h356l-37 -160h-358l-113 -471q-12 -47 -19 -90t-7 -78 q0 -68 37 -97.5t123 -29.5q59 0 116.5 19.5t87.5 36.5l15 -162q-31 -18 -105 -40t-168 -22q-154 0 -225.5 68t-71.5 197z" />
<glyph unicode="&#x1ae;" horiz-adv-x="1144" d="M342 1253l39 166h1055l-39 -166h-428l-310 -1288l-11 -54q-5 -26 -5 -46q0 -45 20.5 -69.5t75.5 -24.5q16 0 44 3t46 9l-14 -148q-20 -6 -55 -12t-74 -6q-135 0 -188.5 58.5t-53.5 162.5q0 33 5.5 71t19.5 91l301 1253h-428z" />
<glyph unicode="&#x1af;" horiz-adv-x="1409" d="M274 377q0 45 8.5 100t18.5 103l201 839h198l-204 -852q-10 -39 -16.5 -86t-6.5 -88q0 -53 12.5 -98t42 -79t76.5 -53.5t115 -19.5q174 0 270 97.5t146 310.5l208 868h125q55 0 90 21.5t54.5 54.5t29 72t11.5 73h190q-6 -66 -26.5 -125t-59.5 -106t-99.5 -81t-148.5 -46 l-180 -754q-29 -117 -66.5 -219t-107.5 -177t-181.5 -119t-285.5 -44q-106 0 -184 32t-129 86t-76 129t-25 161z" />
<glyph unicode="&#x1b0;" horiz-adv-x="1212" d="M229 309q0 53 9.5 105.5t21.5 105.5l131 545h191l-121 -504q-10 -47 -26.5 -110.5t-16.5 -126.5q0 -37 7 -71t26.5 -59.5t52.5 -41t82 -15.5q88 0 154.5 38t111.5 89q2 33 6 68t14 76l158 657h127q55 0 89 21.5t52.5 55.5t26.5 72.5t10 73.5h187q-6 -66 -26.5 -125 t-59.5 -106t-99.5 -81t-148.5 -46l-129 -539q-10 -47 -17.5 -91t-7.5 -91t8.5 -94t28.5 -103l-168 -24q-10 23 -20.5 51.5t-16.5 60.5q-23 -20 -53.5 -42.5t-70.5 -41t-88 -31t-105 -12.5q-90 0 -150.5 27t-98.5 72t-54.5 106t-16.5 131z" />
<glyph unicode="&#x1b1;" horiz-adv-x="1566" d="M264 473q0 121 31 229.5t85 206t130 183.5t168 161h-281l39 166h533l-35 -139q-98 -76 -183 -168t-146.5 -195.5t-97.5 -213t-36 -222.5q0 -174 87 -257t241 -83q147 0 256.5 61.5t182.5 160t108.5 222.5t35.5 249q0 150 -46 259t-122 187l33 139h518l-41 -166h-288 q57 -72 104 -186.5t47 -249.5q0 -174 -52 -328.5t-154.5 -270.5t-253 -183.5t-349.5 -67.5q-111 0 -205 31t-162.5 94.5t-107.5 157.5t-39 223z" />
<glyph unicode="&#x1b2;" horiz-adv-x="1384" d="M274 367q0 109 27 213l201 839h198l-204 -852q-10 -43 -17.5 -88t-7.5 -88q0 -49 11.5 -94t41 -79t78.5 -54.5t123 -20.5q88 0 163 36t136 98.5t109.5 146.5t81 180t49 200.5t16.5 209.5q0 129 -35 191.5t-139 62.5q-29 0 -53.5 -3t-34.5 -5l16 151q23 6 57.5 10t71.5 4 q86 0 144.5 -29.5t94.5 -81.5t52 -124t16 -154q0 -109 -17 -229.5t-54 -239t-98.5 -227.5t-147.5 -190.5t-201.5 -131t-263.5 -49.5q-111 0 -189.5 30t-127.5 83t-73 126t-24 159z" />
<glyph unicode="&#x1b3;" horiz-adv-x="1300" d="M283 1337q37 35 96 69t145 34q47 0 81 -9.5t58.5 -32t42 -58t33.5 -89.5l32 -109l36 -131l37 -140l35 -134l280 341q139 175 246 341h227l-321 -419l-361 -431l-135 -569h-199l134 561l-41 158l-47 167l-48 161l-41 137q-12 41 -30.5 63.5t-53.5 22.5t-65.5 -13.5 t-75.5 -54.5z" />
<glyph unicode="&#x1b4;" horiz-adv-x="1079" d="M-111 -340l66 156q20 -16 55 -27.5t78 -11.5q119 0 202 57t156 152q-76 248 -124 522t-58 557h195q2 -92 10 -201.5t23.5 -227.5t37 -236.5t50.5 -227.5q47 86 83.5 168l70.5 165l69 169l76 178q29 66 54 112t57 74.5t74 41t103 12.5q80 0 148 -33l-49 -144 q-20 10 -40 16.5t-50 6.5q-57 0 -85 -30.5t-57 -100.5l-100 -242l-89 -209q-44 -98 -92 -187t-108 -177q-55 -80 -115.5 -149.5t-129 -120t-150.5 -79t-182 -28.5q-57 0 -106.5 14.5t-72.5 30.5z" />
<glyph unicode="&#x1b5;" horiz-adv-x="1157" d="M76 0l30 133q82 111 200 249l247 282h-238l37 153h334l226 240l202 196h-702l39 166h954l-37 -157q-82 -72 -201.5 -188t-251.5 -257h299l-36 -153h-402l-226 -257q-110 -128 -196 -241h766l-39 -166h-1005z" />
<glyph unicode="&#x1b6;" horiz-adv-x="937" d="M72 0l28 119q55 82 141 179l177 196h-170l33 135h260q82 86 156 155l134 123h-518l37 158h760l-33 -133l-66 -61l-84 -76l-90 -84l-85 -82h235l-33 -135h-329l-171 -183q-79 -88 -126 -153h575l-37 -158h-794z" />
<glyph unicode="&#x1b7;" horiz-adv-x="1128" d="M82 74l92 162q39 -27 123 -61t213 -34q88 0 165 18.5t132 57.5t87 98.5t32 143.5q0 125 -95.5 174t-261.5 49h-47l29 119l134 118l137 122l125 116l100 96h-631l39 166h872l-27 -119q-41 -47 -100 -105l-129 -123l-144 -132l-149 -131q156 -20 253 -101t97 -239 q0 -127 -47 -220t-133 -155.5t-203.5 -93.5t-259.5 -31q-82 0 -148.5 11.5t-116.5 28t-85 34t-53 31.5z" />
<glyph unicode="&#x1b8;" horiz-adv-x="1128" d="M186 334q0 109 40 191.5t113 142t172 96.5t218 53l-81 121l-82 130q-40 65 -72.5 123t-53.5 99l29 129h874l-38 -166h-660q47 -92 127 -217l83 -125l87 -125l-24 -104h-31q-68 0 -154 -12.5t-162.5 -49t-129 -101t-52.5 -169.5q0 -104 79 -157.5t208 -53.5q74 0 135 9.5 t109.5 22.5t84.5 29l58 25l14 -172q-16 -10 -56 -24.5t-96.5 -27.5t-127 -22.5t-148.5 -9.5q-217 0 -340 95.5t-123 269.5z" />
<glyph unicode="&#x1b9;" horiz-adv-x="917" d="M72 -14q0 121 46 207t119.5 143t167 88t189.5 41q-41 61 -80 127.5t-72.5 131t-60.5 124t-43 106.5l27 111h753l-37 -160h-538q43 -98 109.5 -221t144.5 -246l-27 -112h-37q-78 0 -161 -14.5t-152.5 -51.5t-114.5 -99.5t-45 -158.5q0 -98 62.5 -156.5t216.5 -58.5 q57 0 106 9t87 22.5t64.5 27l41.5 21.5l12 -168q-16 -10 -47 -23.5t-76 -25.5t-99.5 -20.5t-115.5 -8.5q-223 0 -331.5 95.5t-108.5 269.5z" />
<glyph unicode="&#x1ba;" horiz-adv-x="874" d="M-61 -291q0 92 24.5 147.5t70.5 89.5t110.5 52t144.5 35q78 16 146.5 33.5t119.5 44t81 67.5t30 103q0 43 -16.5 75.5t-54.5 55t-100.5 36t-156.5 17.5l31 127q125 92 218 169t167 144h-514l36 160h725l-30 -129q-70 -74 -176.5 -168t-235.5 -195q154 -27 219.5 -98.5 t65.5 -187.5q0 -96 -34 -161t-93.5 -108t-140 -69.5t-175.5 -46.5l-135 -28q-57 -11 -96 -29.5t-57.5 -51.5t-18.5 -92q0 -23 3 -37t5 -18l-151 -31q-4 20 -8 47t-4 47z" />
<glyph unicode="&#x1bb;" horiz-adv-x="1071" d="M113 0q16 102 54 187t93 156t123 131.5t145 115.5h-219l35 149h381q106 78 174 164t68 203q0 82 -48.5 131t-152.5 49q-57 0 -108.5 -14.5t-92.5 -34.5t-72.5 -44t-50.5 -42l-65 147q29 27 72 53.5t97 49t116.5 37t128.5 14.5q98 0 167.5 -27.5t114.5 -72.5t66.5 -102.5 t23.5 -119.5q0 -66 -17.5 -122t-45 -104t-65.5 -89t-77 -76h177l-35 -149h-312q-78 -53 -147.5 -107.5t-125.5 -107.5t-96 -106.5t-57 -102.5h650l-39 -166h-860z" />
<glyph unicode="&#x1bc;" horiz-adv-x="1099" d="M123 49l76 166q14 -8 41.5 -20.5t66.5 -24.5t88 -21.5t105 -9.5q82 0 154.5 21.5t128 62.5t88 100.5t32.5 137.5q0 76 -31.5 125t-96 79.5t-163 44t-233.5 17.5l95 272q42 125 81 254h-193l39 166h883l-39 -166h-510q-12 -41 -29 -93l-35 -105l-33 -102l-26 -81 q248 -20 370 -119.5t122 -273.5q0 -109 -39 -202t-117 -161.5t-197.5 -107.5t-279.5 -39q-61 0 -118.5 9.5t-104.5 21.5t-80 25.5t-45 23.5z" />
<glyph unicode="&#x1bd;" horiz-adv-x="962" d="M111 29l57 157q35 -16 99.5 -33.5t181.5 -17.5q61 0 117.5 10.5t100.5 34t69.5 64.5t25.5 102q0 41 -20.5 74t-66.5 55.5t-122 34.5t-186 12h-84l70 204l61 187h-158l35 152h774l-35 -152h-448l-20 -58l-21.5 -67.5l-21.5 -65.5l-19 -54q129 -4 214 -29t137 -66t73.5 -97 t21.5 -124q0 -102 -41 -174t-111.5 -117t-166 -65.5t-201.5 -20.5q-104 0 -187 15.5t-128 38.5z" />
<glyph unicode="&#x1be;" horiz-adv-x="888" d="M113 51l73 156q14 -8 40 -20.5t62 -23.5t79 -19.5t90 -8.5q43 0 87 8.5t77.5 26.5t55 49t21.5 78q0 31 -10 54.5t-32.5 44t-56.5 40t-81 43.5q-47 23 -86 45.5t-68.5 53t-46 71.5t-16.5 101q0 23 2 49t6 39l127 524l197 33l-80 -330h367l-41 -160h-365l-22 -94 q-2 -10 -3.5 -20.5t-1.5 -20.5q0 -55 42 -91t128 -75q53 -25 95.5 -50.5t72 -57t45 -74.5t15.5 -103q0 -86 -33 -151.5t-91.5 -108.5t-138 -64.5t-173.5 -21.5q-70 0 -126.5 9.5t-98.5 21.5t-69.5 25.5t-41.5 21.5z" />
<glyph unicode="&#x1bf;" horiz-adv-x="1150" d="M70 -379l331 1383q61 25 171 54t241 29q100 0 172 -29.5t117 -79.5t65.5 -118.5t20.5 -148.5q0 -287 -208 -497t-656 -325l-64 -268h-190zM367 61q170 51 289.5 117t195.5 145.5t110.5 171t34.5 195.5q0 43 -9 85t-33.5 74t-68.5 52.5t-114 20.5q-78 0 -129 -12.5 t-80 -22.5z" />
<glyph unicode="&#x1c0;" horiz-adv-x="571" d="M102 -379l478 1983h174l-478 -1983h-174z" />
<glyph unicode="&#x1c1;" horiz-adv-x="997" d="M520 -379l478 1983h174l-478 -1983h-174zM102 -379l478 1983h174l-478 -1983h-174z" />
<glyph unicode="&#x1c2;" horiz-adv-x="1175" d="M180 348l37 152h404l59 241h-406l37 152h404l172 711h174l-170 -711h403l-37 -152h-403l-59 -241h405l-37 -152h-405l-174 -727h-174l174 727h-404z" />
<glyph unicode="&#x1c3;" horiz-adv-x="520" d="M154 94q0 74 44 114t101 40t91 -32t34 -93q0 -35 -13.5 -62.5t-34 -47t-47 -30t-53.5 -10.5q-57 0 -89.5 31t-32.5 90zM303 442q16 139 37.5 279.5t62.5 312.5l93 385h200l-92 -387q-12 -49 -33.5 -128t-47 -163t-53.5 -164.5t-50 -134.5h-117z" />
<glyph unicode="&#x1c4;" horiz-adv-x="2580" d="M176 23l330 1378q86 20 182 26.5t182 6.5q315 0 471 -148.5t156 -400.5q0 -176 -55.5 -339t-172 -288t-297.5 -198.5t-433 -73.5q-86 0 -186.5 8.5t-176.5 28.5zM408 164q16 -4 55 -7t127 -3q162 0 292 54t220 151.5t139 231.5t49 294q0 180 -104.5 280.5t-331.5 100.5 q-154 0 -184 -9zM2147 1820l90 84l162 -178l229 168l68 -92l-332 -285zM1499 0l30 133q59 80 138 175l166 199l182 208l186 203l178 184l158 151h-702l39 166h954l-37 -157l-135 -127l-168 -167l-185 -193l-190 -207l-180 -208q-86 -102 -156 -194h766l-39 -166h-1005z" />
<glyph unicode="&#x1c5;" horiz-adv-x="2361" d="M176 23l330 1378q86 20 182 26.5t182 6.5q315 0 471 -148.5t156 -400.5q0 -176 -55.5 -339t-172 -288t-297.5 -198.5t-433 -73.5q-86 0 -186.5 8.5t-176.5 28.5zM408 164q16 -4 55 -7t127 -3q162 0 292 54t220 151.5t139 231.5t49 294q0 180 -104.5 280.5t-331.5 100.5 q-154 0 -184 -9zM1495 0l28 123q61 90 156 200l196 218l199 204q98 96 172 160h-510l37 160h760l-33 -137l-161 -151l-211 -209l-212 -221q-101 -110 -161 -187h571l-37 -160h-794zM1948 1501l90 84l162 -178l229 168l68 -92l-332 -285z" />
<glyph unicode="&#x1c6;" horiz-adv-x="2078" d="M205 356q0 137 46 268.5t137 234t228.5 164.5t319.5 62q23 0 45.5 -2t46.5 -6l115 479l198 33l-288 -1198l-18.5 -90t-8.5 -90t8 -95t29 -104l-168 -24q-23 45 -35 108q-45 -41 -120.5 -82t-186.5 -41q-90 0 -155.5 28t-108.5 79t-63.5 121.5t-20.5 154.5zM395 377 q0 -47 10.5 -90t33 -77t60.5 -54.5t93 -20.5q86 0 146.5 36t105.5 83q2 33 7 70.5t15 83.5l123 512q-18 4 -40.5 5t-43.5 1q-117 0 -211 -45t-160.5 -121t-102.5 -175t-36 -208zM1213 0l28 123q61 90 156 200l196 218l199 204q98 96 172 160h-510l37 160h760l-33 -137 l-161 -151l-211 -209l-212 -221q-101 -110 -161 -187h571l-37 -160h-794zM1665 1501l90 84l162 -178l229 168l68 -92l-332 -285z" />
<glyph unicode="&#x1c7;" horiz-adv-x="2041" d="M170 0l340 1419h199l-301 -1253h628l-39 -166h-827zM1100 98l99 150q33 -33 98 -70t166 -37q74 0 125 18.5t88 58.5t62.5 103.5t47.5 153.5l228 944h198l-229 -962q-25 -98 -55.5 -187.5t-87 -156t-147.5 -105.5t-234 -39q-72 0 -130.5 13.5t-103.5 34t-77 42t-48 39.5z " />
<glyph unicode="&#x1c8;" horiz-adv-x="1564" d="M170 0l340 1419h199l-301 -1253h628l-39 -166h-827zM821 -348l43 158q23 -14 57.5 -22.5t75.5 -8.5q92 0 140 71.5t77 188.5l246 1026h190l-246 -1024q-29 -115 -62.5 -196t-83.5 -132t-119.5 -74.5t-170.5 -23.5q-35 0 -78.5 10.5t-68.5 26.5zM1507 1366q0 66 41 103.5 t92 37.5q47 0 80 -29.5t33 -82.5q0 -61 -43 -99.5t-93 -38.5q-47 0 -78.5 29t-31.5 80z" />
<glyph unicode="&#x1c9;" horiz-adv-x="1091" d="M225 279q0 47 8.5 98t22.5 106l258 1073l199 33l-269 -1120l-20 -88q-10 -43 -10 -82q0 -70 33.5 -111t125.5 -51l-43 -155q-84 2 -142 25.5t-94 62.5t-52.5 92.5t-16.5 116.5zM348 -348l43 158q23 -14 57.5 -22.5t75.5 -8.5q92 0 140 71.5t77 188.5l246 1026h190 l-246 -1024q-29 -115 -62.5 -196t-83.5 -132t-119.5 -74.5t-170.5 -23.5q-35 0 -78.5 10.5t-68.5 26.5zM1034 1366q0 66 41 103.5t92 37.5q47 0 80 -29.5t33 -82.5q0 -61 -43 -99.5t-93 -38.5q-47 0 -78.5 29t-31.5 80z" />
<glyph unicode="&#x1ca;" horiz-adv-x="2433" d="M170 0l340 1419h170q66 -111 134.5 -251t131 -287.5t115.5 -288.5t88 -254l254 1081h194l-337 -1419h-175l-88 270q-51 152 -111.5 307.5t-124 302t-124.5 255.5l-272 -1135h-195zM1491 98l99 150q33 -33 98 -70t166 -37q74 0 125 18.5t88 58.5t62.5 103.5t47.5 153.5 l228 944h198l-229 -962q-25 -98 -55.5 -187.5t-87 -156t-147.5 -105.5t-234 -39q-72 0 -130.5 13.5t-103.5 34t-77 42t-48 39.5z" />
<glyph unicode="&#x1cb;" horiz-adv-x="1955" d="M170 0l340 1419h170q66 -111 134.5 -251t131 -287.5t115.5 -288.5t88 -254l254 1081h194l-337 -1419h-175l-88 270q-51 152 -111.5 307.5t-124 302t-124.5 255.5l-272 -1135h-195zM1213 -348l43 158q23 -14 57.5 -22.5t75.5 -8.5q92 0 140 71.5t77 188.5l246 1026h190 l-246 -1024q-29 -115 -62.5 -196t-83.5 -132t-119.5 -74.5t-170.5 -23.5q-35 0 -78.5 10.5t-68.5 26.5zM1899 1366q0 66 41 103.5t92 37.5q47 0 80 -29.5t33 -82.5q0 -61 -43 -99.5t-93 -38.5q-47 0 -78.5 29t-31.5 80z" />
<glyph unicode="&#x1cc;" horiz-adv-x="1665" d="M160 0l246 1024q94 29 203.5 46t195.5 17q92 0 158.5 -25.5t107.5 -69.5t60.5 -106.5t19.5 -135.5q0 -47 -8 -99.5t-21 -105.5l-131 -545h-190l121 504l27.5 116.5t13.5 112.5q0 82 -45.5 136.5t-167.5 54.5q-51 0 -100.5 -6.5t-82.5 -16.5l-217 -901h-190zM922 -348 l43 158q23 -14 57.5 -22.5t75.5 -8.5q92 0 140 71.5t77 188.5l246 1026h190l-246 -1024q-29 -115 -62.5 -196t-83.5 -132t-119.5 -74.5t-170.5 -23.5q-35 0 -78.5 10.5t-68.5 26.5zM1608 1366q0 66 41 103.5t92 37.5q47 0 80 -29.5t33 -82.5q0 -61 -43 -99.5t-93 -38.5 q-47 0 -78.5 29t-31.5 80z" />
<glyph unicode="&#x1cd;" horiz-adv-x="1310" d="M25 0q229 414 447 762l431 657h195q31 -154 56.5 -310.5t50 -328.5t46.5 -364l47 -416h-200q-10 92 -18.5 185.5t-18.5 179.5h-619l-200 -365h-217zM535 524h507q-16 166 -37.5 330t-50.5 338l-178 -269q-106 -166 -241 -399zM799 1820l90 84l162 -178l229 168l68 -92 l-332 -285z" />
<glyph unicode="&#x1ce;" horiz-adv-x="1122" d="M205 356q0 137 46 268.5t138 234t231.5 165.5t325.5 63q55 0 129 -12t127 -41l-158 -643q-10 -47 -17 -90t-7 -90t8 -95t29 -104l-168 -24q-10 23 -20.5 50.5t-16.5 57.5q-45 -41 -121 -82t-186 -41q-90 0 -154.5 29t-105.5 80t-60.5 120.5t-19.5 153.5zM395 377 q0 -43 8.5 -87t30 -78t57 -55.5t93.5 -21.5q86 0 147.5 37t106.5 86q2 35 7 73t13 77l123 507q-10 4 -33.5 6.5t-42.5 2.5q-117 0 -211 -45t-160.5 -120t-102.5 -174t-36 -208zM645 1501l90 84l162 -178l229 168l68 -92l-332 -285z" />
<glyph unicode="&#x1cf;" horiz-adv-x="546" d="M170 0l340 1419h199l-340 -1419h-199zM420 1820l90 84l162 -178l229 168l68 -92l-332 -285z" />
<glyph unicode="&#x1d0;" horiz-adv-x="518" d="M160 0l256 1065h190l-256 -1065h-190zM330 1501l90 84l162 -178l229 168l68 -92l-332 -285z" />
<glyph unicode="&#x1d1;" horiz-adv-x="1521" d="M258 510q0 168 51 337t154.5 303t257 218t358.5 84q113 0 208 -34t164 -101.5t106.5 -168.5t37.5 -237q0 -170 -52 -337.5t-154.5 -302t-256 -218.5t-358.5 -84q-115 0 -209 34t-162.5 101.5t-106.5 169t-38 236.5zM465 535q0 -182 79 -288t251 -106q137 0 247.5 66.5 t187.5 173t118 240t41 266.5q0 182 -79 287.5t-251 105.5q-139 0 -249 -66.5t-186.5 -173t-117.5 -239.5t-41 -266zM903 1820l90 84l162 -178l229 168l68 -92l-332 -285z" />
<glyph unicode="&#x1d2;" horiz-adv-x="1144" d="M209 346q0 119 33.5 250t107.5 241.5t190.5 182.5t282.5 72q168 0 263.5 -99.5t95.5 -273.5q0 -119 -34 -250t-107.5 -241.5t-190.5 -182.5t-283 -72q-168 0 -263 99.5t-95 273.5zM399 362q0 -104 45 -165.5t156 -61.5q92 0 165 53.5t123 136.5t76.5 183t26.5 194 q0 104 -45 166t-155 62q-92 0 -165 -53.5t-123 -136.5t-77 -183.5t-27 -194.5zM637 1501l90 84l162 -178l229 168l68 -92l-332 -285z" />
<glyph unicode="&#x1d3;" horiz-adv-x="1372" d="M274 377q0 45 8.5 100t18.5 103l201 839h198l-204 -852q-10 -39 -16.5 -86t-6.5 -88q0 -53 12.5 -98t42 -79t76.5 -53.5t115 -19.5q174 0 270 97.5t146 310.5l208 868h199l-213 -891q-29 -117 -66.5 -219t-107.5 -177t-181.5 -119t-285.5 -44q-106 0 -184 32t-129 86 t-76 129t-25 161zM817 1820l90 84l162 -178l229 168l68 -92l-332 -285z" />
<glyph unicode="&#x1d4;" horiz-adv-x="1134" d="M229 309q0 53 9.5 105.5t21.5 105.5l131 545h191l-121 -504q-10 -47 -26.5 -110.5t-16.5 -126.5q0 -37 7 -71t26.5 -59.5t52.5 -41t82 -15.5q88 0 154.5 38t111.5 89q2 33 6 68t14 76l158 657h191l-162 -674q-10 -47 -17.5 -91t-7.5 -91t8.5 -94t28.5 -103l-168 -24 q-10 23 -20.5 51.5t-16.5 60.5q-23 -20 -53.5 -42.5t-70.5 -41t-88 -31t-105 -12.5q-90 0 -150.5 27t-98.5 72t-54.5 106t-16.5 131zM623 1501l90 84l162 -178l229 168l68 -92l-332 -285z" />
<glyph unicode="&#x1d5;" horiz-adv-x="1372" d="M274 377q0 45 8.5 100t18.5 103l201 839h198l-204 -852q-10 -39 -16.5 -86t-6.5 -88q0 -53 12.5 -98t42 -79t76.5 -53.5t115 -19.5q174 0 270 97.5t146 310.5l208 868h199l-213 -891q-29 -117 -66.5 -219t-107.5 -177t-181.5 -119t-285.5 -44q-106 0 -184 32t-129 86 t-76 129t-25 161zM749 1626q0 59 38 94t83 35q41 0 70.5 -27.5t29.5 -72.5q0 -55 -40 -90t-83 -35q-41 0 -69.5 26.5t-28.5 69.5zM854 1839l30 131h520l-30 -131h-520zM1165 1626q0 59 38 94t83 35q41 0 70.5 -27.5t29.5 -72.5q0 -55 -40 -90t-83 -35q-41 0 -69.5 26.5 t-28.5 69.5z" />
<glyph unicode="&#x1d6;" horiz-adv-x="1134" d="M229 309q0 53 9.5 105.5t21.5 105.5l131 545h191l-121 -504q-10 -47 -26.5 -110.5t-16.5 -126.5q0 -37 7 -71t26.5 -59.5t52.5 -41t82 -15.5q88 0 154.5 38t111.5 89q2 33 6 68t14 76l158 657h191l-162 -674q-10 -47 -17.5 -91t-7.5 -91t8.5 -94t28.5 -103l-168 -24 q-10 23 -20.5 51.5t-16.5 60.5q-23 -20 -53.5 -42.5t-70.5 -41t-88 -31t-105 -12.5q-90 0 -150.5 27t-98.5 72t-54.5 106t-16.5 131zM551 1298q0 59 38 94t83 35q41 0 70.5 -27.5t29.5 -72.5q0 -55 -40 -90t-83 -35q-41 0 -69.5 26.5t-28.5 69.5zM656 1511l30 131h520 l-30 -131h-520zM967 1298q0 59 38 94t83 35q41 0 70.5 -27.5t29.5 -72.5q0 -55 -40 -90t-83 -35q-41 0 -69.5 26.5t-28.5 69.5z" />
<glyph unicode="&#x1d7;" horiz-adv-x="1372" d="M274 377q0 45 8.5 100t18.5 103l201 839h198l-204 -852q-10 -39 -16.5 -86t-6.5 -88q0 -53 12.5 -98t42 -79t76.5 -53.5t115 -19.5q174 0 270 97.5t146 310.5l208 868h199l-213 -891q-29 -117 -66.5 -219t-107.5 -177t-181.5 -119t-285.5 -44q-106 0 -184 32t-129 86 t-76 129t-25 161zM676 1626q0 59 38 94t83 35q41 0 70.5 -27.5t29.5 -72.5q0 -55 -39.5 -90t-82.5 -35q-41 0 -70 26.5t-29 69.5zM963 1677l209 293l121 -108l-244 -254zM1233 1626q0 59 38 94t83 35q41 0 71 -27.5t30 -72.5q0 -55 -40 -90t-83 -35q-41 0 -70 26.5t-29 69.5 z" />
<glyph unicode="&#x1d8;" horiz-adv-x="1134" d="M229 309q0 53 9.5 105.5t21.5 105.5l131 545h191l-121 -504q-10 -47 -26.5 -110.5t-16.5 -126.5q0 -37 7 -71t26.5 -59.5t52.5 -41t82 -15.5q88 0 154.5 38t111.5 89q2 33 6 68t14 76l158 657h191l-162 -674q-10 -47 -17.5 -91t-7.5 -91t8.5 -94t28.5 -103l-168 -24 q-10 23 -20.5 51.5t-16.5 60.5q-23 -20 -53.5 -42.5t-70.5 -41t-88 -31t-105 -12.5q-90 0 -150.5 27t-98.5 72t-54.5 106t-16.5 131zM541 1298q0 59 38 94t83 35q41 0 70.5 -27.5t29.5 -72.5q0 -55 -40 -90t-83 -35q-41 0 -69.5 26.5t-28.5 69.5zM797 1456l209 293l121 -109 l-244 -254zM975 1298q0 59 38 94t83 35q41 0 70.5 -27.5t29.5 -72.5q0 -55 -40 -90t-83 -35q-41 0 -69.5 26.5t-28.5 69.5z" />
<glyph unicode="&#x1d9;" horiz-adv-x="1372" d="M274 377q0 45 8.5 100t18.5 103l201 839h198l-204 -852q-10 -39 -16.5 -86t-6.5 -88q0 -53 12.5 -98t42 -79t76.5 -53.5t115 -19.5q174 0 270 97.5t146 310.5l208 868h199l-213 -891q-29 -117 -66.5 -219t-107.5 -177t-181.5 -119t-285.5 -44q-106 0 -184 32t-129 86 t-76 129t-25 161zM676 1626q0 59 38 94t83 35q41 0 70.5 -27.5t29.5 -72.5q0 -55 -39.5 -90t-82.5 -35q-41 0 -70 26.5t-29 69.5zM854 1888l76 82l148 -133l200 131l56 -96l-279 -203zM1233 1626q0 59 38 94t83 35q41 0 71 -27.5t30 -72.5q0 -55 -40 -90t-83 -35 q-41 0 -70 26.5t-29 69.5z" />
<glyph unicode="&#x1da;" horiz-adv-x="1134" d="M229 309q0 53 9.5 105.5t21.5 105.5l131 545h191l-121 -504q-10 -47 -26.5 -110.5t-16.5 -126.5q0 -37 7 -71t26.5 -59.5t52.5 -41t82 -15.5q88 0 154.5 38t111.5 89q2 33 6 68t14 76l158 657h191l-162 -674q-10 -47 -17.5 -91t-7.5 -91t8.5 -94t28.5 -103l-168 -24 q-10 23 -20.5 51.5t-16.5 60.5q-23 -20 -53.5 -42.5t-70.5 -41t-88 -31t-105 -12.5q-90 0 -150.5 27t-98.5 72t-54.5 106t-16.5 131zM539 1298q0 59 38 94t83 35q41 0 70.5 -27.5t29.5 -72.5q0 -55 -40 -90t-83 -35q-41 0 -69.5 26.5t-28.5 69.5zM670 1622l76 82l147 -133 l201 131l55 -96l-278 -203zM973 1298q0 59 38 94t83 35q41 0 70.5 -27.5t29.5 -72.5q0 -55 -40 -90t-83 -35q-41 0 -69.5 26.5t-28.5 69.5z" />
<glyph unicode="&#x1db;" horiz-adv-x="1372" d="M274 377q0 45 8.5 100t18.5 103l201 839h198l-204 -852q-10 -39 -16.5 -86t-6.5 -88q0 -53 12.5 -98t42 -79t76.5 -53.5t115 -19.5q174 0 270 97.5t146 310.5l208 868h199l-213 -891q-29 -117 -66.5 -219t-107.5 -177t-181.5 -119t-285.5 -44q-106 0 -184 32t-129 86 t-76 129t-25 161zM676 1626q0 59 38 94t83 35q41 0 70.5 -27.5t29.5 -72.5q0 -55 -39.5 -90t-82.5 -35q-41 0 -70 26.5t-29 69.5zM889 1886l148 84l125 -309l-97 -57zM1233 1626q0 59 38 94t83 35q41 0 71 -27.5t30 -72.5q0 -55 -40 -90t-83 -35q-41 0 -70 26.5t-29 69.5z " />
<glyph unicode="&#x1dc;" horiz-adv-x="1134" d="M229 309q0 53 9.5 105.5t21.5 105.5l131 545h191l-121 -504q-10 -47 -26.5 -110.5t-16.5 -126.5q0 -37 7 -71t26.5 -59.5t52.5 -41t82 -15.5q88 0 154.5 38t111.5 89q2 33 6 68t14 76l158 657h191l-162 -674q-10 -47 -17.5 -91t-7.5 -91t8.5 -94t28.5 -103l-168 -24 q-10 23 -20.5 51.5t-16.5 60.5q-23 -20 -53.5 -42.5t-70.5 -41t-88 -31t-105 -12.5q-90 0 -150.5 27t-98.5 72t-54.5 106t-16.5 131zM539 1298q0 59 38 94t83 35q41 0 70.5 -27.5t29.5 -72.5q0 -55 -40 -90t-83 -35q-41 0 -69.5 26.5t-28.5 69.5zM674 1665l147 84l125 -309 l-96 -58zM973 1298q0 59 38 94t83 35q41 0 70.5 -27.5t29.5 -72.5q0 -55 -40 -90t-83 -35q-41 0 -69.5 26.5t-28.5 69.5z" />
<glyph unicode="&#x1dd;" horiz-adv-x="1069" d="M168 240q0 96 35 162.5t92 111.5t134 69.5t160 39t168 19.5t161 9q2 16 2 27v16q0 47 -11.5 89t-42 74t-85 50.5t-142.5 18.5q-41 0 -82 -8.5t-78 -18.5t-66.5 -22.5t-43.5 -20.5l-17 162q41 23 132 48.5t214 25.5q104 0 180 -30t127.5 -82t76 -122t24.5 -147 q0 -145 -43 -277.5t-123 -235t-195.5 -163t-259.5 -60.5q-84 0 -144 21.5t-98 58.5t-56.5 84.5t-18.5 100.5zM354 254q0 -18 7.5 -38.5t24.5 -38t47 -29t77 -11.5q72 0 134.5 31t111.5 81t83.5 116.5t53.5 140.5q-119 -4 -217 -15.5t-170 -39t-112 -74.5t-40 -123z" />
<glyph unicode="&#x1de;" horiz-adv-x="1310" d="M25 0q229 414 447 762l431 657h195q31 -154 56.5 -310.5t50 -328.5t46.5 -364l47 -416h-200q-10 92 -18.5 185.5t-18.5 179.5h-619l-200 -365h-217zM535 524h507q-16 166 -37.5 330t-50.5 338l-178 -269q-106 -166 -241 -399zM729 1626q0 59 38 94t83 35q41 0 70.5 -27.5 t29.5 -72.5q0 -55 -40 -90t-83 -35q-41 0 -69.5 26.5t-28.5 69.5zM834 1839l30 131h520l-30 -131h-520zM1145 1626q0 59 38 94t83 35q41 0 70.5 -27.5t29.5 -72.5q0 -55 -40 -90t-83 -35q-41 0 -69.5 26.5t-28.5 69.5z" />
<glyph unicode="&#x1df;" horiz-adv-x="1122" d="M205 356q0 137 46 268.5t138 234t231.5 165.5t325.5 63q55 0 129 -12t127 -41l-158 -643q-10 -47 -17 -90t-7 -90t8 -95t29 -104l-168 -24q-10 23 -20.5 50.5t-16.5 57.5q-45 -41 -121 -82t-186 -41q-90 0 -154.5 29t-105.5 80t-60.5 120.5t-19.5 153.5zM395 377 q0 -43 8.5 -87t30 -78t57 -55.5t93.5 -21.5q86 0 147.5 37t106.5 86q2 35 7 73t13 77l123 507q-10 4 -33.5 6.5t-42.5 2.5q-117 0 -211 -45t-160.5 -120t-102.5 -174t-36 -208zM573 1298q0 59 38 94t83 35q41 0 70.5 -27.5t29.5 -72.5q0 -55 -40 -90t-83 -35 q-41 0 -69.5 26.5t-28.5 69.5zM678 1511l30 131h520l-30 -131h-520zM989 1298q0 59 38 94t83 35q41 0 70.5 -27.5t29.5 -72.5q0 -55 -40 -90t-83 -35q-41 0 -69.5 26.5t-28.5 69.5z" />
<glyph unicode="&#x1e0;" horiz-adv-x="1310" d="M25 0q229 414 447 762l431 657h195q31 -154 56.5 -310.5t50 -328.5t46.5 -364l47 -416h-200q-10 92 -18.5 185.5t-18.5 179.5h-619l-200 -365h-217zM535 524h507q-16 166 -37.5 330t-50.5 338l-178 -269q-106 -166 -241 -399zM836 1839l30 131h520l-30 -131h-520z M940 1628q0 59 38 95.5t85 36.5q41 0 71.5 -28t30.5 -75q0 -57 -41 -92t-84 -35t-71.5 26.5t-28.5 71.5z" />
<glyph unicode="&#x1e1;" horiz-adv-x="1122" d="M205 356q0 137 46 268.5t138 234t231.5 165.5t325.5 63q55 0 129 -12t127 -41l-158 -643q-10 -47 -17 -90t-7 -90t8 -95t29 -104l-168 -24q-10 23 -20.5 50.5t-16.5 57.5q-45 -41 -121 -82t-186 -41q-90 0 -154.5 29t-105.5 80t-60.5 120.5t-19.5 153.5zM395 377 q0 -43 8.5 -87t30 -78t57 -55.5t93.5 -21.5q86 0 147.5 37t106.5 86q2 35 7 73t13 77l123 507q-10 4 -33.5 6.5t-42.5 2.5q-117 0 -211 -45t-160.5 -120t-102.5 -174t-36 -208zM680 1511l30 131h520l-30 -131h-520zM784 1300q0 59 38 95.5t85 36.5q41 0 71.5 -28t30.5 -75 q0 -57 -41 -92t-84 -35t-71.5 26.5t-28.5 71.5z" />
<glyph unicode="&#x1e2;" horiz-adv-x="1908" d="M10 0l315 417l299 369l288 331l284 302h911l-39 -166h-610l-102 -428h538l-39 -161h-536l-121 -498h657l-38 -166h-854l86 365h-543l-136 -183l-132 -182h-228zM631 524h456l177 731l-320 -351q-159 -183 -313 -380zM1278 1628l35 147h573l-35 -147h-573z" />
<glyph unicode="&#x1e3;" horiz-adv-x="1720" d="M205 233q0 143 70.5 224.5t178 120t234.5 50t242 17.5q2 16 3 31.5t1 32.5q0 111 -61.5 161t-196.5 50q-41 0 -82 -8.5t-78 -18.5t-66.5 -22.5t-43.5 -20.5l-17 162q47 25 136 49t188 24q53 0 106 -10t101.5 -32.5t88.5 -62.5t66 -97q39 51 88 89t104.5 63.5t113 37.5 t112.5 12q61 0 117.5 -14t97.5 -46t65.5 -81t24.5 -119q0 -96 -32.5 -162.5t-88 -111.5t-128 -69.5t-153.5 -39t-164 -19.5t-159 -9q-2 -16 -3 -31.5t-1 -30.5q0 -117 61.5 -165t196.5 -48q39 0 81 7.5t80 18.5t67.5 22.5t41.5 21.5l17 -162q-53 -29 -142.5 -51.5 t-187.5 -22.5q-55 0 -109.5 10.5t-101.5 34t-85 61.5t-60 95q-72 -94 -182.5 -147.5t-239.5 -53.5q-59 0 -114.5 15.5t-96.5 47.5t-65.5 80.5t-24.5 116.5zM391 260q0 -66 43 -97.5t113 -31.5q135 0 230 95.5t130 273.5q-145 -4 -243.5 -20.5t-159 -47.5t-87 -74t-26.5 -98z M1096 559q143 2 242.5 19.5t160 48t87 73.5t26.5 99q0 66 -43 97.5t-113 31.5q-135 0 -230 -95.5t-130 -273.5zM901 1309l35 147h573l-35 -147h-573z" />
<glyph unicode="&#x1e4;" horiz-adv-x="1388" d="M258 520q0 184 58.5 352t167 297t261 206t342.5 77q94 0 163 -12.5t118 -28.5t80 -33.5t49 -29.5l-88 -162q-16 10 -45 26.5t-70 32t-94 25.5t-121 10q-145 0 -259.5 -66.5t-193.5 -172t-120 -237.5t-41 -261q0 -203 86 -302.5t272 -99.5q76 0 137.5 10.5t88.5 20.5 l53 227h-217l35 150h217l47 196h194l-47 -196h152l-35 -150h-154l-84 -354q-25 -14 -67.5 -27.5t-100 -23.5t-124 -16.5t-136.5 -6.5q-258 0 -391 148.5t-133 400.5z" />
<glyph unicode="&#x1e5;" horiz-adv-x="1167" d="M68 -303l71 160q47 -35 125 -56.5t164 -21.5q84 0 147.5 20.5t109.5 59.5t74.5 92t45.5 121l8 39q-41 -23 -110.5 -45.5t-143.5 -22.5q-166 0 -255 83t-89 232q0 137 45 268.5t137 234t229.5 164.5t321.5 62q29 0 65 -4t73.5 -11t73.5 -19.5t63 -28.5l-95 -393h154 l-33 -139h-155l-95 -400q-27 -111 -65.5 -199t-106 -149t-174 -95t-266.5 -34q-88 0 -174 23.5t-145 58.5zM406 412q0 -111 48 -160t146 -49q82 0 150.5 29.5t105.5 56.5l49 203h-196l32 139h197l68 280q-20 4 -47 8.5t-52 4.5q-111 0 -203 -42t-158.5 -113t-103 -164 t-36.5 -193z" />
<glyph unicode="&#x1e6;" horiz-adv-x="1341" d="M258 520q0 184 58.5 352t167 297t261 206t342.5 77q94 0 163 -12.5t118 -28.5t80 -33.5t49 -29.5l-88 -162q-16 10 -45 26.5t-70 32t-94 25.5t-121 10q-145 0 -259.5 -66.5t-193.5 -172t-120 -237.5t-41 -261q0 -203 86 -302.5t272 -99.5q76 0 137.5 10.5t88.5 20.5 l122 520h195l-156 -647q-25 -14 -67.5 -27.5t-100 -23.5t-124 -16.5t-136.5 -6.5q-258 0 -391 148.5t-133 400.5zM881 1820l90 84l162 -178l229 168l68 -92l-332 -285z" />
<glyph unicode="&#x1e7;" horiz-adv-x="1134" d="M57 -303l72 160q47 -35 125 -56.5t164 -21.5q84 0 147.5 20.5t109.5 59.5t74.5 92t45.5 121l8 39q-41 -23 -110.5 -45.5t-143.5 -22.5q-166 0 -255 83t-89 232q0 137 45 268.5t137 234t229.5 164.5t321.5 62q29 0 64.5 -4t73.5 -11t74 -19.5t62 -28.5l-223 -932 q-27 -111 -65.5 -199t-106 -149t-174 -95t-266.5 -34q-88 0 -174.5 23.5t-145.5 58.5zM395 412q0 -111 48.5 -160t146.5 -49q82 0 150.5 29.5t105.5 56.5l149 622q-20 4 -46.5 8.5t-51.5 4.5q-111 0 -203 -42t-158.5 -113t-103.5 -164t-37 -193zM656 1501l90 84l162 -178 l229 168l68 -92l-332 -285z" />
<glyph unicode="&#x1e8;" horiz-adv-x="1265" d="M170 0l340 1419h199l-150 -620l195 153l204 172l188 164l144 131h250l-175 -156l-203 -178l-212 -180l-202 -166q63 -59 133.5 -147t139.5 -188.5t131 -205t110 -198.5h-222q-53 94 -114.5 192.5t-126 188.5t-132 169t-135.5 134l-163 -684h-199zM778 1820l90 84 l162 -178l229 168l68 -92l-332 -285z" />
<glyph unicode="&#x1e9;" horiz-adv-x="1067" d="M160 0l375 1556l198 33l-229 -948q68 49 139 108l136 115l119 110q54 52 89 91h225q-43 -53 -109 -119l-140 -132l-149 -128q-75 -61 -134 -104q55 -51 111.5 -122t108.5 -150t95 -159.5t72 -150.5h-207q-72 166 -171 305t-210 227l-129 -532h-190zM557 1888l76 82 l148 -133l200 131l56 -96l-279 -203z" />
<glyph unicode="&#x1ea;" horiz-adv-x="1521" d="M258 510q0 168 51 337t154.5 303t257 218t358.5 84q113 0 208 -34t164 -101.5t106.5 -168.5t37.5 -237q0 -133 -31.5 -266t-95 -252t-160 -213t-223.5 -149l-87 -40q-46 -22 -85 -52q-41 -35 -74.5 -74t-33.5 -72q0 -20 17.5 -32.5t58.5 -12.5q20 0 41.5 4t40.5 10 l-17 -122q-49 -23 -119 -23q-113 0 -157.5 36t-44.5 93q0 55 36.5 106.5t86.5 92.5l36 28q-4 -2 -14 -2h-14q-111 2 -202 37t-156.5 102.5t-102.5 167t-37 232.5zM465 535q0 -182 79 -288t251 -106q137 0 247.5 66.5t187.5 173t118 240t41 266.5q0 182 -79 287.5t-251 105.5 q-139 0 -249 -66.5t-186.5 -173t-117.5 -239.5t-41 -266z" />
<glyph unicode="&#x1eb;" horiz-adv-x="1144" d="M209 346q0 119 33.5 250t107.5 241.5t190.5 182.5t282.5 72q168 0 263.5 -99.5t95.5 -273.5q0 -98 -22.5 -200.5t-66.5 -196t-113 -170t-161 -121.5q-43 -23 -86 -50.5t-78 -60.5q-10 -10 -25.5 -23.5t-29.5 -30t-24.5 -34.5t-10.5 -39q0 -20 17.5 -32.5t58.5 -12.5 q20 0 42 4t40 10l-16 -122q-49 -23 -119 -23q-113 0 -158 36t-45 93q0 55 37 106.5t86 92.5l43 30q-160 2 -251 99.5t-91 271.5zM399 362q0 -104 45 -165.5t156 -61.5q92 0 165 53.5t123 136.5t76.5 183t26.5 194q0 104 -45 166t-155 62q-92 0 -165 -53.5t-123 -136.5 t-77 -183.5t-27 -194.5z" />
<glyph unicode="&#x1ec;" horiz-adv-x="1521" d="M258 510q0 168 51 337t154.5 303t257 218t358.5 84q113 0 208 -34t164 -101.5t106.5 -168.5t37.5 -237q0 -133 -31.5 -266t-95 -252t-160 -213t-223.5 -149l-87 -40q-46 -22 -85 -52q-41 -35 -74.5 -74t-33.5 -72q0 -20 17.5 -32.5t58.5 -12.5q20 0 41.5 4t40.5 10 l-17 -122q-49 -23 -119 -23q-113 0 -157.5 36t-44.5 93q0 55 36.5 106.5t86.5 92.5l36 28q-4 -2 -14 -2h-14q-111 2 -202 37t-156.5 102.5t-102.5 167t-37 232.5zM465 535q0 -182 79 -288t251 -106q137 0 247.5 66.5t187.5 173t118 240t41 266.5q0 182 -79 287.5t-251 105.5 q-139 0 -249 -66.5t-186.5 -173t-117.5 -239.5t-41 -266zM860 1628l35 147h573l-35 -147h-573z" />
<glyph unicode="&#x1ed;" horiz-adv-x="1144" d="M209 346q0 119 33.5 250t107.5 241.5t190.5 182.5t282.5 72q168 0 263.5 -99.5t95.5 -273.5q0 -98 -22.5 -200.5t-66.5 -196t-113 -170t-161 -121.5q-43 -23 -86 -50.5t-78 -60.5q-10 -10 -25.5 -23.5t-29.5 -30t-24.5 -34.5t-10.5 -39q0 -20 17.5 -32.5t58.5 -12.5 q20 0 42 4t40 10l-16 -122q-49 -23 -119 -23q-113 0 -158 36t-45 93q0 55 37 106.5t86 92.5l43 30q-160 2 -251 99.5t-91 271.5zM399 362q0 -104 45 -165.5t156 -61.5q92 0 165 53.5t123 136.5t76.5 183t26.5 194q0 104 -45 166t-155 62q-92 0 -165 -53.5t-123 -136.5 t-77 -183.5t-27 -194.5zM596 1309l35 147h573l-35 -147h-573z" />
<glyph unicode="&#x1ee;" horiz-adv-x="1128" d="M82 74l92 162q39 -27 123 -61t213 -34q88 0 165 18.5t132 57.5t87 98.5t32 143.5q0 125 -95.5 174t-261.5 49h-47l29 119l134 118l137 122l125 116l100 96h-631l39 166h872l-27 -119q-41 -47 -100 -105l-129 -123l-144 -132l-149 -131q156 -20 253 -101t97 -239 q0 -127 -47 -220t-133 -155.5t-203.5 -93.5t-259.5 -31q-82 0 -148.5 11.5t-116.5 28t-85 34t-53 31.5zM699 1820l90 84l162 -178l229 168l68 -92l-332 -285z" />
<glyph unicode="&#x1ef;" horiz-adv-x="876" d="M-49 -305l63 153q41 -23 107.5 -42t177.5 -19q70 0 136.5 16.5t117.5 54.5t82 99t31 152q0 72 -27 115.5t-74 68t-109.5 33t-131.5 8.5h-27l29 125l123 110l124 120l116 117l95 99h-544l36 160h758l-30 -127q-39 -47 -95 -108l-117 -123l-130 -127l-132 -119 q150 -23 238 -109t88 -227q0 -242 -150.5 -373t-426.5 -131q-117 0 -205 24.5t-123 49.5zM459 1501l90 84l162 -178l229 168l68 -92l-332 -285z" />
<glyph unicode="&#x1f0;" horiz-adv-x="518" d="M-223 -348l43 158q23 -14 57.5 -22.5t75.5 -8.5q92 0 140 71.5t77 188.5l246 1026h190l-246 -1024q-29 -115 -62.5 -196t-83.5 -132t-119.5 -74.5t-170.5 -23.5q-35 0 -78.5 10.5t-68.5 26.5zM326 1501l90 84l162 -178l229 168l68 -92l-332 -285z" />
<glyph unicode="&#x1f1;" horiz-adv-x="2580" d="M176 23l330 1378q86 20 182 26.5t182 6.5q315 0 471 -148.5t156 -400.5q0 -176 -55.5 -339t-172 -288t-297.5 -198.5t-433 -73.5q-86 0 -186.5 8.5t-176.5 28.5zM408 164q16 -4 55 -7t127 -3q162 0 292 54t220 151.5t139 231.5t49 294q0 180 -104.5 280.5t-331.5 100.5 q-154 0 -184 -9zM1499 0l30 133q59 80 138 175l166 199l182 208l186 203l178 184l158 151h-702l39 166h954l-37 -157l-135 -127l-168 -167l-185 -193l-190 -207l-180 -208q-86 -102 -156 -194h766l-39 -166h-1005z" />
<glyph unicode="&#x1f2;" horiz-adv-x="2361" d="M176 23l330 1378q86 20 182 26.5t182 6.5q315 0 471 -148.5t156 -400.5q0 -176 -55.5 -339t-172 -288t-297.5 -198.5t-433 -73.5q-86 0 -186.5 8.5t-176.5 28.5zM408 164q16 -4 55 -7t127 -3q162 0 292 54t220 151.5t139 231.5t49 294q0 180 -104.5 280.5t-331.5 100.5 q-154 0 -184 -9zM1495 0l28 123q61 90 156 200l196 218l199 204q98 96 172 160h-510l37 160h760l-33 -137l-161 -151l-211 -209l-212 -221q-101 -110 -161 -187h571l-37 -160h-794z" />
<glyph unicode="&#x1f3;" horiz-adv-x="2078" d="M205 356q0 137 46 268.5t137 234t228.5 164.5t319.5 62q23 0 45.5 -2t46.5 -6l115 479l198 33l-288 -1198l-18.5 -90t-8.5 -90t8 -95t29 -104l-168 -24q-23 45 -35 108q-45 -41 -120.5 -82t-186.5 -41q-90 0 -155.5 28t-108.5 79t-63.5 121.5t-20.5 154.5zM395 377 q0 -47 10.5 -90t33 -77t60.5 -54.5t93 -20.5q86 0 146.5 36t105.5 83q2 33 7 70.5t15 83.5l123 512q-18 4 -40.5 5t-43.5 1q-117 0 -211 -45t-160.5 -121t-102.5 -175t-36 -208zM1213 0l28 123q61 90 156 200l196 218l199 204q98 96 172 160h-510l37 160h760l-33 -137 l-161 -151l-211 -209l-212 -221q-101 -110 -161 -187h571l-37 -160h-794z" />
<glyph unicode="&#x1f4;" horiz-adv-x="1341" d="M258 520q0 184 58.5 352t167 297t261 206t342.5 77q94 0 163 -12.5t118 -28.5t80 -33.5t49 -29.5l-88 -162q-16 10 -45 26.5t-70 32t-94 25.5t-121 10q-145 0 -259.5 -66.5t-193.5 -172t-120 -237.5t-41 -261q0 -203 86 -302.5t272 -99.5q76 0 137.5 10.5t88.5 20.5 l122 520h195l-156 -647q-25 -14 -67.5 -27.5t-100 -23.5t-124 -16.5t-136.5 -6.5q-258 0 -391 148.5t-133 400.5zM947 1607l323 309l105 -147l-346 -262z" />
<glyph unicode="&#x1f5;" horiz-adv-x="1134" d="M57 -303l72 160q47 -35 125 -56.5t164 -21.5q84 0 147.5 20.5t109.5 59.5t74.5 92t45.5 121l8 39q-41 -23 -110.5 -45.5t-143.5 -22.5q-166 0 -255 83t-89 232q0 137 45 268.5t137 234t229.5 164.5t321.5 62q29 0 64.5 -4t73.5 -11t74 -19.5t62 -28.5l-223 -932 q-27 -111 -65.5 -199t-106 -149t-174 -95t-266.5 -34q-88 0 -174.5 23.5t-145.5 58.5zM395 412q0 -111 48.5 -160t146.5 -49q82 0 150.5 29.5t105.5 56.5l149 622q-20 4 -46.5 8.5t-51.5 4.5q-111 0 -203 -42t-158.5 -113t-103.5 -164t-37 -193zM721 1288l323 309l105 -147 l-346 -262z" />
<glyph unicode="&#x1f6;" horiz-adv-x="2074" d="M170 0l340 1419h199l-144 -594h658l143 594h199l-207 -864l-26.5 -121.5t-14.5 -118.5q0 -33 8 -63.5t29.5 -55t58.5 -39t92 -14.5q72 0 125 18.5t93 59.5t68 103.5t50 152.5l139 588h197l-143 -612q-20 -90 -53 -176.5t-93.5 -155t-156 -110.5t-240.5 -42 q-104 0 -176 27t-116 71t-62.5 102t-18.5 124q0 53 8.5 107.5t22.5 113.5l35 145h-658l-157 -659h-199z" />
<glyph unicode="&#x1f7;" horiz-adv-x="1302" d="M78 -379l414 1718q33 16 84 33t109 31t120.5 22.5t118.5 8.5q240 0 360.5 -104.5t120.5 -295.5q0 -213 -82 -379t-223.5 -291.5t-329.5 -216t-403 -151.5l-91 -375h-198zM414 188q141 45 280.5 115t251 170t181 234.5t69.5 310.5q0 49 -14.5 93t-48 78t-88 53.5 t-134.5 19.5q-94 0 -155.5 -14.5t-93.5 -24.5z" />
<glyph unicode="&#x1f8;" horiz-adv-x="1437" d="M170 0l340 1419h170q66 -111 134.5 -251t131 -287.5t115.5 -288.5t88 -254l254 1081h194l-337 -1419h-175l-88 270q-51 152 -111.5 307.5t-124 302t-124.5 255.5l-272 -1135h-195zM862 1798l139 116l260 -327l-100 -88z" />
<glyph unicode="&#x1f9;" horiz-adv-x="1136" d="M160 0l246 1024q94 29 203.5 46t195.5 17q92 0 158.5 -25.5t107.5 -69.5t60.5 -106.5t19.5 -135.5q0 -47 -8 -99.5t-21 -105.5l-131 -545h-190l121 504l27.5 116.5t13.5 112.5q0 82 -45.5 136.5t-167.5 54.5q-51 0 -100.5 -6.5t-82.5 -16.5l-217 -901h-190zM649 1479 l139 116l260 -327l-100 -88z" />
<glyph unicode="&#x1fa;" horiz-adv-x="1310" d="M25 0q217 395 426 730l413 634q-45 51 -45 129q0 88 56.5 138t134.5 50q76 0 133 -50t57 -138q0 -55 -23.5 -96t-62.5 -64q27 -145 50.5 -292.5t45 -309.5t42.5 -342l46 -389h-200q-10 92 -18.5 185.5t-18.5 179.5h-619l-200 -365h-217zM535 524h507q-16 166 -37.5 330 t-50.5 338l-178 -269q-106 -166 -241 -399zM864 1802l322 168l43 -143l-330 -125zM911 1493q0 -47 29 -74.5t70 -27.5t69.5 27.5t28.5 74.5t-28.5 73.5t-69.5 26.5t-70 -26.5t-29 -73.5z" />
<glyph unicode="&#x1fb;" horiz-adv-x="1122" d="M205 356q0 137 46 268.5t138 234t231.5 165.5t325.5 63q55 0 129 -12t127 -41l-158 -643q-10 -47 -17 -90t-7 -90t8 -95t29 -104l-168 -24q-10 23 -20.5 50.5t-16.5 57.5q-45 -41 -121 -82t-186 -41q-90 0 -154.5 29t-105.5 80t-60.5 120.5t-19.5 153.5zM395 377 q0 -43 8.5 -87t30 -78t57 -55.5t93.5 -21.5q86 0 147.5 37t106.5 86q2 35 7 73t13 77l123 507q-10 4 -33.5 6.5t-42.5 2.5q-117 0 -211 -45t-160.5 -120t-102.5 -174t-36 -208zM708 1366q0 88 56.5 138t134.5 50q76 0 133 -50t57 -138t-57 -138t-133 -50q-78 0 -134.5 50 t-56.5 138zM788 1696l322 168l43 -144l-330 -125zM800 1366q0 -47 29 -74.5t70 -27.5t69.5 27.5t28.5 74.5t-28.5 73.5t-69.5 26.5t-70 -26.5t-29 -73.5z" />
<glyph unicode="&#x1fc;" horiz-adv-x="1908" d="M10 0l315 417l299 369l288 331l284 302h911l-39 -166h-610l-102 -428h538l-39 -161h-536l-121 -498h657l-38 -166h-854l86 365h-543l-136 -183l-132 -182h-228zM631 524h456l177 731l-320 -351q-159 -183 -313 -380zM1389 1607l323 309l105 -147l-346 -262z" />
<glyph unicode="&#x1fd;" horiz-adv-x="1720" d="M205 233q0 143 70.5 224.5t178 120t234.5 50t242 17.5q2 16 3 31.5t1 32.5q0 111 -61.5 161t-196.5 50q-41 0 -82 -8.5t-78 -18.5t-66.5 -22.5t-43.5 -20.5l-17 162q47 25 136 49t188 24q53 0 106 -10t101.5 -32.5t88.5 -62.5t66 -97q39 51 88 89t104.5 63.5t113 37.5 t112.5 12q61 0 117.5 -14t97.5 -46t65.5 -81t24.5 -119q0 -96 -32.5 -162.5t-88 -111.5t-128 -69.5t-153.5 -39t-164 -19.5t-159 -9q-2 -16 -3 -31.5t-1 -30.5q0 -117 61.5 -165t196.5 -48q39 0 81 7.5t80 18.5t67.5 22.5t41.5 21.5l17 -162q-53 -29 -142.5 -51.5 t-187.5 -22.5q-55 0 -109.5 10.5t-101.5 34t-85 61.5t-60 95q-72 -94 -182.5 -147.5t-239.5 -53.5q-59 0 -114.5 15.5t-96.5 47.5t-65.5 80.5t-24.5 116.5zM391 260q0 -66 43 -97.5t113 -31.5q135 0 230 95.5t130 273.5q-145 -4 -243.5 -20.5t-159 -47.5t-87 -74t-26.5 -98z M1096 559q143 2 242.5 19.5t160 48t87 73.5t26.5 99q0 66 -43 97.5t-113 31.5q-135 0 -230 -95.5t-130 -273.5zM1010 1288l323 309l105 -147l-346 -262z" />
<glyph unicode="&#x1fe;" horiz-adv-x="1521" d="M217 14l133 152q-92 131 -92 344q0 168 51 337t154.5 303t257 218t358.5 84q188 0 320 -94l121 137l114 -88l-133 -152q45 -66 69.5 -149.5t24.5 -194.5q0 -170 -52 -337.5t-154.5 -302t-256 -218.5t-358.5 -84q-193 0 -321 92l-119 -135zM465 535q0 -59 6 -112.5 t23 -94.5l778 886q-78 66 -213 66q-139 0 -249 -66.5t-186.5 -173t-117.5 -239.5t-41 -266zM580 207q39 -35 93 -50.5t122 -15.5q137 0 247.5 66.5t187.5 173t118 240t41 266.5q0 59 -6.5 110.5t-22.5 96.5zM969 1607l323 309l105 -147l-346 -262z" />
<glyph unicode="&#x1ff;" horiz-adv-x="1144" d="M145 2l113 129q-49 86 -49 215q0 119 33.5 250t108.5 241.5t191.5 182.5t282.5 72q133 0 222 -64l94 107l104 -76l-112 -129q23 -43 36 -95.5t13 -115.5q0 -119 -34 -250t-107.5 -241.5t-190.5 -182.5t-283 -72q-135 0 -223 64l-96 -111zM395 326q0 -16 4 -33l527 598 q-53 41 -135 41q-92 0 -166 -54.5t-125 -137.5t-78 -184t-27 -196v-34zM465 172q45 -39 135 -39q92 0 166 54.5t125 137.5t77.5 184t26.5 196v32q0 16 -4 33zM705 1288l323 309l105 -147l-346 -262z" />
<glyph unicode="&#x200;" horiz-adv-x="1310" d="M25 0q229 414 447 762l431 657h195q31 -154 56.5 -310.5t50 -328.5t46.5 -364l47 -416h-200q-10 92 -18.5 185.5t-18.5 179.5h-619l-200 -365h-217zM535 524h507q-16 166 -37.5 330t-50.5 338l-178 -269q-106 -166 -241 -399zM608 1814l143 102l203 -342l-98 -67z M952 1810l141 104l193 -344l-88 -63z" />
<glyph unicode="&#x201;" horiz-adv-x="1122" d="M205 356q0 137 46 268.5t138 234t231.5 165.5t325.5 63q55 0 129 -12t127 -41l-158 -643q-10 -47 -17 -90t-7 -90t8 -95t29 -104l-168 -24q-10 23 -20.5 50.5t-16.5 57.5q-45 -41 -121 -82t-186 -41q-90 0 -154.5 29t-105.5 80t-60.5 120.5t-19.5 153.5zM395 377 q0 -43 8.5 -87t30 -78t57 -55.5t93.5 -21.5q86 0 147.5 37t106.5 86q2 35 7 73t13 77l123 507q-10 4 -33.5 6.5t-42.5 2.5q-117 0 -211 -45t-160.5 -120t-102.5 -174t-36 -208zM455 1495l143 102l203 -342l-98 -67zM799 1491l141 104l193 -344l-88 -63z" />
<glyph unicode="&#x202;" horiz-adv-x="1310" d="M25 0q229 414 447 762l431 657h195q31 -154 56.5 -310.5t50 -328.5t46.5 -364l47 -416h-200q-10 92 -18.5 185.5t-18.5 179.5h-619l-200 -365h-217zM535 524h507q-16 166 -37.5 330t-50.5 338l-178 -269q-106 -166 -241 -399zM756 1568q18 135 102 210t215 75 q61 0 106.5 -18.5t73 -49t41 -70.5t13.5 -83q0 -33 -6 -64h-119q2 6 2 25q0 59 -33 93t-94 34q-43 0 -74 -15.5t-51.5 -38t-31.5 -49t-17 -49.5h-127z" />
<glyph unicode="&#x203;" horiz-adv-x="1122" d="M205 356q0 137 46 268.5t138 234t231.5 165.5t325.5 63q55 0 129 -12t127 -41l-158 -643q-10 -47 -17 -90t-7 -90t8 -95t29 -104l-168 -24q-10 23 -20.5 50.5t-16.5 57.5q-45 -41 -121 -82t-186 -41q-90 0 -154.5 29t-105.5 80t-60.5 120.5t-19.5 153.5zM395 377 q0 -43 8.5 -87t30 -78t57 -55.5t93.5 -21.5q86 0 147.5 37t106.5 86q2 35 7 73t13 77l123 507q-10 4 -33.5 6.5t-42.5 2.5q-117 0 -211 -45t-160.5 -120t-102.5 -174t-36 -208zM602 1249q18 135 102 210t215 75q61 0 106.5 -18.5t73 -49t41 -70.5t13.5 -83q0 -33 -6 -64 h-119q2 6 2 25q0 59 -33 93t-94 34q-43 0 -74 -15.5t-51.5 -38t-31.5 -49t-17 -49.5h-127z" />
<glyph unicode="&#x204;" horiz-adv-x="1148" d="M170 0l340 1419h838l-39 -166h-641l-103 -428h570l-39 -161h-568l-120 -498h688l-39 -166h-887zM545 1814l143 102l203 -342l-98 -67zM889 1810l141 104l193 -344l-88 -63z" />
<glyph unicode="&#x205;" horiz-adv-x="1069" d="M209 354q0 143 43 276.5t123 236t194.5 163t259.5 60.5q84 0 144.5 -21.5t98.5 -58.5t56.5 -85t18.5 -100q0 -96 -35 -162.5t-92 -111.5t-134 -69.5t-160 -39t-168 -19.5t-161 -9q-2 -16 -2 -27v-16q0 -47 11.5 -89t42 -74t85 -50.5t142.5 -18.5q39 0 81 7.5t79.5 18.5 t67.5 22.5t42 21.5l17 -162q-41 -23 -132.5 -48.5t-214.5 -25.5q-104 0 -180 30t-127 82t-75.5 121.5t-24.5 147.5zM422 559q119 4 217 15.5t170 39t112 74.5t40 123q0 18 -7.5 38.5t-25 38t-48 29t-75.5 11.5q-72 0 -134.5 -31t-111.5 -81t-84 -116.5t-53 -140.5zM436 1495 l143 102l203 -342l-98 -67zM780 1491l141 104l193 -344l-88 -63z" />
<glyph unicode="&#x206;" horiz-adv-x="1148" d="M170 0l340 1419h838l-39 -166h-641l-103 -428h570l-39 -161h-568l-120 -498h688l-39 -166h-887zM709 1568q18 135 102 210t215 75q61 0 106.5 -18.5t73 -49t41 -70.5t13.5 -83q0 -33 -6 -64h-119q2 6 2 25q0 59 -33 93t-94 34q-43 0 -74 -15.5t-51.5 -38t-31.5 -49 t-17 -49.5h-127z" />
<glyph unicode="&#x207;" horiz-adv-x="1069" d="M209 354q0 143 43 276.5t123 236t194.5 163t259.5 60.5q84 0 144.5 -21.5t98.5 -58.5t56.5 -85t18.5 -100q0 -96 -35 -162.5t-92 -111.5t-134 -69.5t-160 -39t-168 -19.5t-161 -9q-2 -16 -2 -27v-16q0 -47 11.5 -89t42 -74t85 -50.5t142.5 -18.5q39 0 81 7.5t79.5 18.5 t67.5 22.5t42 21.5l17 -162q-41 -23 -132.5 -48.5t-214.5 -25.5q-104 0 -180 30t-127 82t-75.5 121.5t-24.5 147.5zM422 559q119 4 217 15.5t170 39t112 74.5t40 123q0 18 -7.5 38.5t-25 38t-48 29t-75.5 11.5q-72 0 -134.5 -31t-111.5 -81t-84 -116.5t-53 -140.5zM584 1249 q18 135 102 210t215 75q61 0 106.5 -18.5t73 -49t41 -70.5t13.5 -83q0 -33 -6 -64h-119q2 6 2 25q0 59 -33 93t-94 34q-43 0 -74 -15.5t-51.5 -38t-31.5 -49t-17 -49.5h-127z" />
<glyph unicode="&#x208;" horiz-adv-x="546" d="M170 0l340 1419h199l-340 -1419h-199zM227 1814l143 102l203 -342l-98 -67zM571 1810l141 104l193 -344l-88 -63z" />
<glyph unicode="&#x209;" horiz-adv-x="518" d="M160 0l256 1065h190l-256 -1065h-190zM137 1495l143 102l203 -342l-98 -67zM481 1491l141 104l193 -344l-88 -63z" />
<glyph unicode="&#x20a;" horiz-adv-x="546" d="M170 0l340 1419h199l-340 -1419h-199zM375 1568q18 135 102 210t215 75q61 0 106.5 -18.5t73 -49t41 -70.5t13.5 -83q0 -33 -6 -64h-119q2 6 2 25q0 59 -33 93t-94 34q-43 0 -74 -15.5t-51.5 -38t-31.5 -49t-17 -49.5h-127z" />
<glyph unicode="&#x20b;" horiz-adv-x="518" d="M160 0l256 1065h190l-256 -1065h-190zM285 1249q18 135 102 210t215 75q61 0 106.5 -18.5t73 -49t41 -70.5t13.5 -83q0 -33 -6 -64h-119q2 6 2 25q0 59 -33 93t-94 34q-43 0 -74 -15.5t-51.5 -38t-31.5 -49t-17 -49.5h-127z" />
<glyph unicode="&#x20c;" horiz-adv-x="1521" d="M258 510q0 168 51 337t154.5 303t257 218t358.5 84q113 0 208 -34t164 -101.5t106.5 -168.5t37.5 -237q0 -170 -52 -337.5t-154.5 -302t-256 -218.5t-358.5 -84q-115 0 -209 34t-162.5 101.5t-106.5 169t-38 236.5zM465 535q0 -182 79 -288t251 -106q137 0 247.5 66.5 t187.5 173t118 240t41 266.5q0 182 -79 287.5t-251 105.5q-139 0 -249 -66.5t-186.5 -173t-117.5 -239.5t-41 -266zM711 1814l143 102l203 -342l-98 -67zM1055 1810l141 104l193 -344l-88 -63z" />
<glyph unicode="&#x20d;" horiz-adv-x="1144" d="M209 346q0 119 33.5 250t107.5 241.5t190.5 182.5t282.5 72q168 0 263.5 -99.5t95.5 -273.5q0 -119 -34 -250t-107.5 -241.5t-190.5 -182.5t-283 -72q-168 0 -263 99.5t-95 273.5zM399 362q0 -104 45 -165.5t156 -61.5q92 0 165 53.5t123 136.5t76.5 183t26.5 194 q0 104 -45 166t-155 62q-92 0 -165 -53.5t-123 -136.5t-77 -183.5t-27 -194.5zM446 1495l143 102l203 -342l-98 -67zM790 1491l141 104l193 -344l-88 -63z" />
<glyph unicode="&#x20e;" horiz-adv-x="1521" d="M258 510q0 168 51 337t154.5 303t257 218t358.5 84q113 0 208 -34t164 -101.5t106.5 -168.5t37.5 -237q0 -170 -52 -337.5t-154.5 -302t-256 -218.5t-358.5 -84q-115 0 -209 34t-162.5 101.5t-106.5 169t-38 236.5zM465 535q0 -182 79 -288t251 -106q137 0 247.5 66.5 t187.5 173t118 240t41 266.5q0 182 -79 287.5t-251 105.5q-139 0 -249 -66.5t-186.5 -173t-117.5 -239.5t-41 -266zM860 1568q18 135 102 210t215 75q61 0 106.5 -18.5t73 -49t41 -70.5t13.5 -83q0 -33 -6 -64h-119q2 6 2 25q0 59 -33 93t-94 34q-43 0 -74 -15.5t-51.5 -38 t-31.5 -49t-17 -49.5h-127z" />
<glyph unicode="&#x20f;" horiz-adv-x="1144" d="M209 346q0 119 33.5 250t107.5 241.5t190.5 182.5t282.5 72q168 0 263.5 -99.5t95.5 -273.5q0 -119 -34 -250t-107.5 -241.5t-190.5 -182.5t-283 -72q-168 0 -263 99.5t-95 273.5zM399 362q0 -104 45 -165.5t156 -61.5q92 0 165 53.5t123 136.5t76.5 183t26.5 194 q0 104 -45 166t-155 62q-92 0 -165 -53.5t-123 -136.5t-77 -183.5t-27 -194.5zM594 1249q18 135 102 210t215 75q61 0 106.5 -18.5t73 -49t41 -70.5t13.5 -83q0 -33 -6 -64h-119q2 6 2 25q0 59 -33 93t-94 34q-43 0 -74 -15.5t-51.5 -38t-31.5 -49t-17 -49.5h-127z" />
<glyph unicode="&#x210;" horiz-adv-x="1255" d="M170 0l336 1401q86 20 182 26.5t182 6.5q227 0 360.5 -92.5t133.5 -270.5q0 -180 -105.5 -302t-295.5 -175q25 -43 57.5 -109.5t67 -147.5t67.5 -168t57 -169h-202l-60 158q-31 80 -62.5 153.5t-63 138t-58.5 113.5q-27 -2 -53.5 -3t-53.5 -1h-157l-133 -559h-199z M541 721h121q84 0 172 12t160.5 48t118.5 100.5t46 171.5q0 115 -87 164t-226 49q-145 0 -176 -9zM534 1814l143 102l203 -342l-98 -67zM878 1810l141 104l193 -344l-88 -63z" />
<glyph unicode="&#x211;" horiz-adv-x="770" d="M160 0l246 1024q82 29 176 46t188 17q25 0 55.5 -2t60 -7t54.5 -10t37 -11l-55 -166q-41 16 -94.5 24.5t-102.5 8.5q-43 0 -85 -6.5t-73 -16.5l-217 -901h-190zM336 1495l143 102l203 -342l-98 -67zM680 1491l141 104l193 -344l-88 -63z" />
<glyph unicode="&#x212;" horiz-adv-x="1255" d="M170 0l336 1401q86 20 182 26.5t182 6.5q227 0 360.5 -92.5t133.5 -270.5q0 -180 -105.5 -302t-295.5 -175q25 -43 57.5 -109.5t67 -147.5t67.5 -168t57 -169h-202l-60 158q-31 80 -62.5 153.5t-63 138t-58.5 113.5q-27 -2 -53.5 -3t-53.5 -1h-157l-133 -559h-199z M541 721h121q84 0 172 12t160.5 48t118.5 100.5t46 171.5q0 115 -87 164t-226 49q-145 0 -176 -9zM682 1568q18 135 102 210t215 75q61 0 106.5 -18.5t73 -49t41 -70.5t13.5 -83q0 -33 -6 -64h-119q2 6 2 25q0 59 -33 93t-94 34q-43 0 -74 -15.5t-51.5 -38t-31.5 -49 t-17 -49.5h-127z" />
<glyph unicode="&#x213;" horiz-adv-x="770" d="M160 0l246 1024q82 29 176 46t188 17q25 0 55.5 -2t60 -7t54.5 -10t37 -11l-55 -166q-41 16 -94.5 24.5t-102.5 8.5q-43 0 -85 -6.5t-73 -16.5l-217 -901h-190zM481 1249q18 135 102 210t215 75q61 0 106.5 -18.5t73 -49t41 -70.5t13.5 -83q0 -33 -6 -64h-119q2 6 2 25 q0 59 -33 93t-94 34q-43 0 -74 -15.5t-51.5 -38t-31.5 -49t-17 -49.5h-127z" />
<glyph unicode="&#x214;" horiz-adv-x="1372" d="M274 377q0 45 8.5 100t18.5 103l201 839h198l-204 -852q-10 -39 -16.5 -86t-6.5 -88q0 -53 12.5 -98t42 -79t76.5 -53.5t115 -19.5q174 0 270 97.5t146 310.5l208 868h199l-213 -891q-29 -117 -66.5 -219t-107.5 -177t-181.5 -119t-285.5 -44q-106 0 -184 32t-129 86 t-76 129t-25 161zM627 1814l143 102l203 -342l-98 -67zM971 1810l141 104l193 -344l-88 -63z" />
<glyph unicode="&#x215;" horiz-adv-x="1134" d="M229 309q0 53 9.5 105.5t21.5 105.5l131 545h191l-121 -504q-10 -47 -26.5 -110.5t-16.5 -126.5q0 -37 7 -71t26.5 -59.5t52.5 -41t82 -15.5q88 0 154.5 38t111.5 89q2 33 6 68t14 76l158 657h191l-162 -674q-10 -47 -17.5 -91t-7.5 -91t8.5 -94t28.5 -103l-168 -24 q-10 23 -20.5 51.5t-16.5 60.5q-23 -20 -53.5 -42.5t-70.5 -41t-88 -31t-105 -12.5q-90 0 -150.5 27t-98.5 72t-54.5 106t-16.5 131zM430 1495l143 102l203 -342l-98 -67zM774 1491l141 104l193 -344l-88 -63z" />
<glyph unicode="&#x216;" horiz-adv-x="1372" d="M274 377q0 45 8.5 100t18.5 103l201 839h198l-204 -852q-10 -39 -16.5 -86t-6.5 -88q0 -53 12.5 -98t42 -79t76.5 -53.5t115 -19.5q174 0 270 97.5t146 310.5l208 868h199l-213 -891q-29 -117 -66.5 -219t-107.5 -177t-181.5 -119t-285.5 -44q-106 0 -184 32t-129 86 t-76 129t-25 161zM774 1568q18 135 102 210t215 75q61 0 106.5 -18.5t73 -49t41 -70.5t13.5 -83q0 -33 -6 -64h-119q2 6 2 25q0 59 -33 93t-94 34q-43 0 -74 -15.5t-51.5 -38t-31.5 -49t-17 -49.5h-127z" />
<glyph unicode="&#x217;" horiz-adv-x="1134" d="M229 309q0 53 9.5 105.5t21.5 105.5l131 545h191l-121 -504q-10 -47 -26.5 -110.5t-16.5 -126.5q0 -37 7 -71t26.5 -59.5t52.5 -41t82 -15.5q88 0 154.5 38t111.5 89q2 33 6 68t14 76l158 657h191l-162 -674q-10 -47 -17.5 -91t-7.5 -91t8.5 -94t28.5 -103l-168 -24 q-10 23 -20.5 51.5t-16.5 60.5q-23 -20 -53.5 -42.5t-70.5 -41t-88 -31t-105 -12.5q-90 0 -150.5 27t-98.5 72t-54.5 106t-16.5 131zM578 1249q18 135 102 210t215 75q61 0 106.5 -18.5t73 -49t41 -70.5t13.5 -83q0 -33 -6 -64h-119q2 6 2 25q0 59 -33 93t-94 34 q-43 0 -74 -15.5t-51.5 -38t-31.5 -49t-17 -49.5h-127z" />
<glyph unicode="&#x218;" horiz-adv-x="1067" d="M80 74l92 162q39 -27 123 -61t213 -34q63 0 125.5 13.5t112 44t80 81t30.5 123.5q0 51 -19.5 89t-53 68t-80.5 55l-101 55q-47 25 -95 53.5t-86 70.5t-61.5 99t-23.5 137q0 92 36 170t105.5 134.5t171 87t232.5 30.5q61 0 116.5 -9t101.5 -23.5t80.5 -30t51.5 -27.5 l-92 -156q-35 29 -112 52.5t-181 23.5q-66 0 -122 -13.5t-97 -42t-65.5 -72.5t-24.5 -105q0 -53 16 -89t45 -64t71 -50l91 -47q61 -31 115.5 -62.5t95.5 -75t64.5 -100.5t23.5 -139q0 -113 -44 -198t-121 -141t-182.5 -85t-228.5 -29q-82 0 -148.5 11.5t-116.5 28t-85 34 t-53 31.5zM219 -373l29 113q4 -2 13 -2h15q55 0 83 32.5t51 127.5h178q-10 -59 -28.5 -110.5t-52.5 -89.5t-83 -59.5t-121 -21.5q-23 0 -46.5 3t-37.5 7z" />
<glyph unicode="&#x219;" horiz-adv-x="851" d="M82 51l74 156q14 -8 39.5 -20.5t61.5 -24.5t79 -20.5t90 -8.5q43 0 87 8.5t78 26.5t55.5 50t21.5 79q0 31 -10.5 54.5t-33 44t-56 40t-81.5 43.5q-47 23 -86 45.5t-68.5 53t-46 72.5t-16.5 102q0 154 111 247t321 93q98 0 173 -19.5t104 -36.5l-72 -155q-29 16 -92 34.5 t-141 18.5q-39 0 -78 -8t-70.5 -27.5t-51 -51.5t-19.5 -77q0 -55 43 -91t129 -75q53 -25 95 -50.5t71.5 -57t45 -74.5t15.5 -103q0 -86 -33 -151.5t-91 -108.5t-138 -64.5t-174 -21.5q-70 0 -126 9.5t-98 21.5t-70 25.5t-42 21.5zM137 -373l29 113q4 -2 13 -2h15 q55 0 83 32.5t51 127.5h178q-10 -59 -28.5 -110.5t-52.5 -89.5t-83 -59.5t-121 -21.5q-23 0 -46.5 3t-37.5 7z" />
<glyph unicode="&#x21a;" horiz-adv-x="1144" d="M342 1253l39 166h1055l-39 -166h-428l-301 -1253h-199l301 1253h-428zM266 -373l29 113q4 -2 13 -2h15q55 0 83 32.5t51 127.5h178q-10 -59 -28.5 -110.5t-52.5 -89.5t-83 -59.5t-121 -21.5q-23 0 -46.5 3t-37.5 7z" />
<glyph unicode="&#x21b;" horiz-adv-x="804" d="M227 236q0 84 29 215l219 911l199 33l-80 -330h362l-38 -160h-363l-113 -471q-25 -96 -24 -168q0 -68 37 -97.5t123 -29.5q59 0 116.5 19.5t87.5 36.5l15 -162q-31 -18 -105 -40t-168 -22q-154 0 -225.5 68t-71.5 197zM186 -373l29 113q4 -2 13 -2h15q55 0 83 32.5 t51 127.5h178q-10 -59 -28.5 -110.5t-52.5 -89.5t-83 -59.5t-121 -21.5q-23 0 -46.5 3t-37.5 7z" />
<glyph unicode="&#x21c;" horiz-adv-x="1122" d="M-23 -371l48 170q16 -2 43.5 -3t56.5 -1q145 0 272 24.5t221.5 80t148.5 145.5t54 221q0 74 -29.5 125t-79.5 82t-116 44t-135 13h-72l37 160h59q86 0 171 25.5t153 75t110 121t42 163.5q0 104 -57.5 155.5t-168.5 51.5t-201 -27.5t-141 -56.5l-20 162q55 33 156.5 61.5 t220.5 28.5q193 0 302 -87t109 -271q0 -145 -89 -273.5t-273 -202.5q59 -25 102 -60.5t71.5 -79.5t42 -93t13.5 -98q0 -182 -71.5 -308.5t-195.5 -205t-291 -114.5t-355 -36q-33 0 -76.5 2t-61.5 6z" />
<glyph unicode="&#x21d;" horiz-adv-x="849" d="M-39 -379l27 162q92 0 202.5 13.5t208 53t162 112.5t64.5 194q0 59 -28 94t-72 53.5t-99 23.5t-111 5h-18l41 157q66 0 134.5 14.5t125.5 48.5t93 88t36 134q0 47 -16.5 78t-44 49.5t-62.5 25.5t-69 7q-47 0 -91.5 -8t-81 -18.5t-63.5 -23t-39 -20.5l-12 164 q12 8 43 18.5t75 20.5t96 17.5t105 7.5q166 0 256 -75t90 -229q0 -129 -82.5 -225t-212.5 -141q98 -31 148.5 -96.5t50.5 -157.5q0 -158 -75.5 -262.5t-198.5 -168t-275.5 -90t-306.5 -26.5z" />
<glyph unicode="&#x21e;" horiz-adv-x="1402" d="M170 0l340 1419h199l-144 -594h658l143 594h199l-340 -1419h-199l158 659h-658l-157 -659h-199zM842 1820l90 84l162 -178l229 168l68 -92l-332 -285z" />
<glyph unicode="&#x21f;" horiz-adv-x="1138" d="M160 0l375 1556l198 33l-131 -538q47 16 99.5 26t105.5 10q92 0 158.5 -25.5t107.5 -69.5t60.5 -106.5t19.5 -135.5q0 -90 -29 -205l-131 -545h-190l121 504l27.5 116.5t13.5 112.5q0 82 -45.5 136.5t-167.5 54.5q-49 0 -101.5 -9.5t-87.5 -25.5l-213 -889h-190z M557 1888l76 82l148 -133l200 131l56 -96l-279 -203z" />
<glyph unicode="&#x220;" horiz-adv-x="1343" d="M170 0l330 1376q37 12 89 25.5t114.5 24t131 17.5t136.5 7q113 0 195.5 -28.5t135 -82t78 -127t25.5 -161.5q0 -86 -21 -177l-301 -1253h-198l289 1202q12 49 21 101.5t9 107.5q0 123 -57 184.5t-199 61.5q-35 0 -73.5 -2t-76.5 -6t-72 -9.5t-58 -13.5l-299 -1247h-199z " />
<glyph unicode="&#x221;" horiz-adv-x="1359" d="M205 356q0 137 46 268.5t137 234t228.5 164.5t319.5 62q23 0 45.5 -2t46.5 -6l115 479l198 33l-344 -1442q45 31 90.5 43.5t81.5 12.5q61 0 103.5 -19.5t68 -51.5t38 -75t12.5 -90q0 -72 -25 -134t-70 -109.5t-109.5 -75t-142.5 -27.5q-111 0 -177 45t-89 131l-194 -182 l-86 96l282 264q0 14 2 33t6 39q-59 -35 -124.5 -52.5t-120.5 -17.5q-90 0 -153.5 28t-104.5 78t-60.5 119.5t-19.5 153.5zM395 377q0 -47 10.5 -90t33 -77t60.5 -54.5t93 -20.5q76 0 132 23.5t97 58.5l168 703q-18 4 -40.5 5t-43.5 1q-117 0 -211 -45t-160.5 -121 t-102.5 -175t-36 -208zM936 -119q0 -53 29.5 -86t89.5 -33q39 0 72.5 15.5t59 41t40 61.5t14.5 77q0 47 -26.5 76.5t-86.5 29.5q-51 0 -91 -22.5t-83 -58.5l-12 -52q-6 -29 -6 -49z" />
<glyph unicode="&#x222;" horiz-adv-x="1349" d="M195 342q0 180 103 289.5t269 154.5q-121 59 -121 230q0 86 29 194.5t82 208.5h193q-39 -86 -75 -185t-36 -200q0 -92 54.5 -140t172.5 -48q147 0 230.5 74.5t117.5 212.5q18 72 27.5 138t13.5 148h187q-2 -78 -7 -147.5t-30 -167.5q-29 -113 -87 -199t-175 -133 q86 -29 142 -100.5t56 -169.5q0 -131 -51 -227.5t-140 -160t-212 -95t-264 -31.5q-119 0 -208 26.5t-149.5 73.5t-91 111.5t-30.5 142.5zM397 356q0 -53 24.5 -92t66.5 -63.5t97.5 -35.5t119.5 -11q74 0 150.5 18t140 58t103.5 103.5t40 153.5q0 53 -24.5 91t-66.5 63 t-97.5 36t-119.5 11q-74 0 -150.5 -18.5t-140 -58.5t-103.5 -103.5t-40 -151.5z" />
<glyph unicode="&#x223;" horiz-adv-x="1142" d="M205 346q0 223 94 367.5t260 206.5q-49 29 -78.5 89t-29.5 132q0 117 36.5 233.5t83.5 214.5h183q-45 -100 -84 -210.5t-39 -215.5q0 -76 38 -126t126 -50q117 0 189.5 74t113.5 239q16 72 24 145t13 144h176q-4 -92 -11.5 -172t-27.5 -166q-14 -59 -36 -113.5 t-54.5 -100.5t-76.5 -81.5t-101 -56.5q70 -35 113.5 -109.5t43.5 -185.5q0 -121 -33.5 -233.5t-104.5 -201.5t-181.5 -142.5t-263.5 -53.5q-86 0 -155 29t-117 78t-74.5 117.5t-26.5 148.5zM393 371q0 -104 51.5 -169t155.5 -65q96 0 167 40t116 104.5t66.5 145.5t21.5 165 q0 104 -51.5 168.5t-155.5 64.5q-96 0 -167 -40t-116 -104.5t-66.5 -146t-21.5 -163.5z" />
<glyph unicode="&#x224;" horiz-adv-x="1157" d="M76 0l30 133q59 80 138 175l166 199l182 208l186 203l178 184l158 151h-702l39 166h954l-37 -157l-135 -127l-168 -167l-185 -193l-190 -207l-180 -208q-86 -102 -156 -194h766l-39 -166q-23 -94 -48 -166t-67 -120t-107.5 -72.5t-166.5 -24.5q-29 0 -69.5 8t-57.5 19 l49 143q12 -6 35 -11t51 -5q84 0 120 51t59 143l8 35h-811z" />
<glyph unicode="&#x225;" horiz-adv-x="937" d="M72 0l28 123q61 90 156 200l196 218l199 204q98 96 172 160h-510l37 160h760l-33 -137l-161 -151l-211 -209l-212 -221q-101 -110 -161 -187h573l-39 -164q-23 -94 -47 -165t-64 -119t-100.5 -71.5t-154.5 -23.5q-35 0 -76 8t-57 19l49 137q12 -6 34.5 -11.5t51.5 -5.5 q84 0 123 51.5t57 137.5l10 47h-620z" />
<glyph unicode="&#x226;" horiz-adv-x="1310" d="M25 0q229 414 447 762l431 657h195q31 -154 56.5 -310.5t50 -328.5t46.5 -364l47 -416h-200q-10 92 -18.5 185.5t-18.5 179.5h-619l-200 -365h-217zM535 524h507q-16 166 -37.5 330t-50.5 338l-178 -269q-106 -166 -241 -399zM938 1685q0 66 41 103.5t92 37.5 q47 0 80 -29.5t33 -82.5q0 -61 -43 -99.5t-92 -38.5q-47 0 -79 29t-32 80z" />
<glyph unicode="&#x227;" horiz-adv-x="1122" d="M205 356q0 137 46 268.5t138 234t231.5 165.5t325.5 63q55 0 129 -12t127 -41l-158 -643q-10 -47 -17 -90t-7 -90t8 -95t29 -104l-168 -24q-10 23 -20.5 50.5t-16.5 57.5q-45 -41 -121 -82t-186 -41q-90 0 -154.5 29t-105.5 80t-60.5 120.5t-19.5 153.5zM395 377 q0 -43 8.5 -87t30 -78t57 -55.5t93.5 -21.5q86 0 147.5 37t106.5 86q2 35 7 73t13 77l123 507q-10 4 -33.5 6.5t-42.5 2.5q-117 0 -211 -45t-160.5 -120t-102.5 -174t-36 -208zM784 1366q0 66 41 103.5t92 37.5q47 0 80 -29.5t33 -82.5q0 -61 -43 -99.5t-92 -38.5 q-47 0 -79 29t-32 80z" />
<glyph unicode="&#x228;" horiz-adv-x="1148" d="M170 0l340 1419h838l-39 -166h-641l-103 -428h570l-39 -161h-568l-120 -498h688l-39 -166h-361q-16 -20 -30.5 -40.5t-24.5 -37.5q41 -23 61.5 -49.5t20.5 -73.5q0 -92 -63.5 -139t-174.5 -47q-59 0 -99 9t-67 22l48 112q16 -8 42.5 -15t65.5 -7q35 0 57.5 11t22.5 40 q0 25 -16.5 37t-55.5 31l-12 6q16 29 44 69l50 72h-395z" />
<glyph unicode="&#x229;" horiz-adv-x="1069" d="M209 354q0 143 43 276.5t123 236t194.5 163t259.5 60.5q84 0 144.5 -21.5t98.5 -58.5t56.5 -85t18.5 -100q0 -96 -35 -162.5t-92 -111.5t-134 -69.5t-160 -39t-168 -19.5t-161 -9q-2 -16 -2 -27v-16q0 -47 11.5 -89t42 -74t85 -50.5t142.5 -18.5q39 0 81 7.5t79.5 18.5 t67.5 22.5t42 21.5l17 -162q-37 -23 -120 -45t-194 -27q-10 -12 -19 -27l-16 -26q41 -23 61.5 -49.5t20.5 -73.5q0 -92 -63.5 -139t-173.5 -47q-59 0 -99.5 9t-66.5 22l47 112q16 -8 43 -15t66 -7q35 0 57 11t22 40q0 25 -16 37t-55 31l-13 6q14 25 36 58.5l44 64.5 q-80 12 -139 45.5t-98 83t-58.5 111.5t-19.5 132zM422 559q119 4 217 15.5t170 39t112 74.5t40 123q0 18 -7.5 38.5t-25 38t-48 29t-75.5 11.5q-72 0 -134.5 -31t-111.5 -81t-84 -116.5t-53 -140.5z" />
<glyph unicode="&#x22a;" horiz-adv-x="1521" d="M258 510q0 168 51 337t154.5 303t257 218t358.5 84q113 0 208 -34t164 -101.5t106.5 -168.5t37.5 -237q0 -170 -52 -337.5t-154.5 -302t-256 -218.5t-358.5 -84q-115 0 -209 34t-162.5 101.5t-106.5 169t-38 236.5zM465 535q0 -182 79 -288t251 -106q137 0 247.5 66.5 t187.5 173t118 240t41 266.5q0 182 -79 287.5t-251 105.5q-139 0 -249 -66.5t-186.5 -173t-117.5 -239.5t-41 -266zM831 1626q0 59 38 94t83 35q41 0 70.5 -27.5t29.5 -72.5q0 -55 -40 -90t-83 -35q-41 0 -69.5 26.5t-28.5 69.5zM936 1839l30 131h520l-30 -131h-520z M1247 1626q0 59 38 94t83 35q41 0 70.5 -27.5t29.5 -72.5q0 -55 -40 -90t-83 -35q-41 0 -69.5 26.5t-28.5 69.5z" />
<glyph unicode="&#x22b;" horiz-adv-x="1144" d="M209 346q0 119 33.5 250t107.5 241.5t190.5 182.5t282.5 72q168 0 263.5 -99.5t95.5 -273.5q0 -119 -34 -250t-107.5 -241.5t-190.5 -182.5t-283 -72q-168 0 -263 99.5t-95 273.5zM399 362q0 -104 45 -165.5t156 -61.5q92 0 165 53.5t123 136.5t76.5 183t26.5 194 q0 104 -45 166t-155 62q-92 0 -165 -53.5t-123 -136.5t-77 -183.5t-27 -194.5zM565 1298q0 59 38 94t83 35q41 0 70.5 -27.5t29.5 -72.5q0 -55 -40 -90t-83 -35q-41 0 -69.5 26.5t-28.5 69.5zM670 1511l30 131h520l-30 -131h-520zM981 1298q0 59 38 94t83 35 q41 0 70.5 -27.5t29.5 -72.5q0 -55 -40 -90t-83 -35q-41 0 -69.5 26.5t-28.5 69.5z" />
<glyph unicode="&#x22c;" horiz-adv-x="1521" d="M258 510q0 168 51 337t154.5 303t257 218t358.5 84q113 0 208 -34t164 -101.5t106.5 -168.5t37.5 -237q0 -170 -52 -337.5t-154.5 -302t-256 -218.5t-358.5 -84q-115 0 -209 34t-162.5 101.5t-106.5 169t-38 236.5zM465 535q0 -182 79 -288t251 -106q137 0 247.5 66.5 t187.5 173t118 240t41 266.5q0 182 -79 287.5t-251 105.5q-139 0 -249 -66.5t-186.5 -173t-117.5 -239.5t-41 -266zM830 1585q41 78 91 118t134 40q35 0 65.5 -12t59.5 -29l47 -24q25 -12 49 -13q41 0 68 29t47 57l84 -55q-41 -78 -91 -118t-134 -40q-35 0 -65.5 12.5 t-59.5 28.5l-47 25q-25 12 -49 12q-41 0 -68 -28.5t-47 -57.5zM938 1839l31 131h520l-30 -131h-521z" />
</font>
</defs>
</svg>
